Червона спека / Red Heat (1988) 1080p Ukr/Eng | Sub Eng

Нові коментарі

Нова тема   Відповісти
Автор Повідомлення
omm 
Відео Гуртом - фільмокрай
Відео Гуртом - фільмокрай


З нами з: 12.06.12
Востаннє: 19.04.18
Повідомлень: 2225

2018-04-17 10:07  
Червона спека / Red Heat (1988) 1080p Ukr/Eng | Sub Eng

Червона спека / Red Heat (1988) 1080p Ukr/Eng | Sub Eng


Жанр: бойовик, триллер, комедія, кримінал
Країна: США



Кінокомпанія: Carolco Pictures
Режисер: Волтер Гіл / Walter Hill
Актори: Арнольд Шварценеґер / Arnold Schwarzenegger, Джеймс Белуші / Jim Belushi, Пітер Бойл / Peter Boyle, Лоуренс Фішберн / Laurence Fishburne, Джина Гершон / Gina Gershon, Річард Брайт / Richard Bright, Савелій Крамаров / Saveliy Kramarov та інші

Сюжет:
У доперебудовчі часи торгівля наркотиками була надзвичайним злочином. Боротьбу з грузинським мафіозі, який, використовуючи всі зв’язки США, намагається привчити радянських громадян до кокаїну, починає гроза злочинного світу, міліціонер Іван Данко. Він не любить жартів, доказом серйозності його намірів є великі м’язи і пістолет. Щоб заарештувати бандита, Іван вирушає у Чикаґо – розсадник капіталістичної зарази. Там його помічником стає балакучий полісмен.

Тривалість: 01:44:21
Якість: 1080p (Rutracker)
Відео:
кодек:
розмір кадру: 1920 х 1072
бітрейт: 9392 кб/с

Аудіо # 1:
мова: українська
переклад: двоголосий закадровий
кодек: 2.0
бітрейт: 192 кб/с
Інформація про озвучення:
Аудіо # 2:
мова: англійська
переклад: оригінал
кодек: 5.1
бітрейт: 1509 кб/с

Субтитри:
мова: англійська
тип: програмні (м'які)
формат: *.srt
Info
General
Unique ID : 1778811934047463822062422900596639009 (0x156963314860459692D3168FD618521)
Complete name : C:\Users\тарас\Downloads\Red Heat (1988) [Ukr,Eng Sub-Eng] 1080p [Hurtom].
Format :
Format version : Version 4 / Version 2
File size : 8.09 GiB
Duration : 1 h 44 min
Overall bit rate : 11.1 Mb/s
Encoded date : UTC 2018-04-13 17:33:05
Writing application : mkvmerge v19.0.0 ('Brave Captain') 64-bit
Writing library : libebml v1.3.5 + libmatroska v1.4.8

Video
ID : 1
Format : AVC
Format/Info : Advanced Video Codec
Format profile : [email protected]
Format settings : CABAC / 4 Ref Frames
Format settings, CABAC : Yes
Format settings, RefFrames : 4 frames
Codec ID : V_MPEG4/ISO/AVC
Duration : 1 h 44 min
Bit rate : 9 392 kb/s
Width : 1 920 pixels
Height : 1 072 pixels
Display aspect ratio : 16:9
Frame rate mode : Constant
Frame rate : 23.976 (24000/1001) FPS
Color space : YUV
Chroma subsampling : 4:2:0
Bit depth : 8 bits
Scan type : Progressive
Bits/(Pixel*Frame) : 0.190
Stream size : 6.84 GiB (85%)
Writing library : core 79 r1332M 70f8869
Encoding settings : cabac=1 / ref=4 / deblock=1:0:0 / analyse=0x3:0x133 / me=umh / subme=7 / psy=1 / psy_rd=1.0:0.0 / mixed_ref=1 / me_range=16 / chroma_me=1 / trellis=1 / 8x8dct=1 / cqm=0 / deadzone=21,11 / chroma_qp_offset=-2 / threads=6 / nr=0 / decimate=1 / mbaff=0 / constrained_intra=0 / bframes=3 / b_pyramid=2 / b_adapt=1 / b_bias=0 / direct=3 / wpredb=1 / wpredp=2 / keyint=250 / keyint_min=25 / scenecut=40 / rc=2pass / mbtree=0 / bitrate=9392 / ratetol=1.0 / qcomp=0.60 / qpmin=10 / qpmax=51 / qpstep=4 / cplxblur=20.0 / qblur=0.5 / ip_ratio=1.40 / pb_ratio=1.30 / aq=1:1.00
Language : English
Default : Yes
Forced : No

Audio #1
ID : 2
Format : AC-3
Format/Info : Audio Coding 3
Codec ID : A_AC3
Duration : 1 h 44 min
Bit rate mode : Constant
Bit rate : 192 kb/s
Channel(s) : 2 channels
Channel positions : Front: L R
Sampling rate : 48.0 kHz
Frame rate : 31.250 FPS (1536 SPF)
Bit depth : 16 bits
Compression mode : Lossy
Stream size : 143 MiB (2%)
Service kind : Complete Main
Default : Yes
Forced : No

Audio #2
ID : 3
Format :
Format/Info : Digital Theater Systems
Codec ID : A_DTS
Duration : 1 h 44 min
Bit rate mode : Constant
Bit rate : 1 509 kb/s
Channel(s) : 6 channels
Channel positions : Front: L C R, Side: L R, LFE
Sampling rate : 48.0 kHz
Frame rate : 93.750 FPS (512 SPF)
Bit depth : 24 bits
Compression mode : Lossy
Stream size : 1.10 GiB (14%)
Language : English
Default : No
Forced : No

Text
ID : 4
Format : UTF-8
Codec ID : S_TEXT/UTF8
Codec ID/Info : UTF-8 Plain Text
Duration : 1 h 37 min
Bit rate : 56 b/s
Count of elements : 1088
Stream size : 40.1 KiB (0%)
Language : English
Default : Yes
Forced : No

Подяку панам РОМЕО, Arsenfpu за звукову доріжку та пану Deluxeman за українізований постер
Джерело:


Срібний реліз (на рейтинг впливає 50% завантаженого)
 Трекер:    Зареєстрований   

Завантажити / скачати фільм українською



відео для новачків



 Зареєстрований:   2018-04-17 10:07
 Розмір:   8.09 GB 
 Оцінка фільму:   9.8/10 (Голосів: 4)
   
Інші релізи
   Червона спека / Red Heat (1988) Ukr/Eng Arsenfpu  8 / 0   2 GB   2017-09-25 22:43 
   Червона спека / Red Heat (1988) sokeel  3 / 0   744 MB   2016-10-20 17:55 
   Червона спека / Red Heat (1988) 720p Ukr/Eng | Sub Eng Hurtomivets'  6 / 0   6.87 GB   2011-11-21 20:22 
   Червона спека / Red Heat (1988) Ukr/Eng | Sub Eng robotron005  5 / 0   2.18 GB   2010-06-07 19:29 
yukeo 
Новенький


З нами з: 20.06.12
Востаннє: 19.04.18
Повідомлень: 3

2018-04-17 17:16  
-Do u know Miranda ?
-Never heard about that b*tch!
-SMACK ! ...Hooligany
Wide grin
https://www.youtube.com/watch?v=61nYwoswwyI

fortifel 
Новенький


З нами з: 12.11.16
Востаннє: 19.04.18
Повідомлень: 2

2018-04-18 06:50  
Какіє ваши доказательства?!
EvGaS 
Відео Гуртом - субтитрування
Відео Гуртом - субтитрування


З нами з: 27.02.12
Востаннє: 19.04.18
Повідомлень: 4583

2018-04-18 07:29  
Хлопці, ви мені й всього й залишили з цитат, що фразу з ногою. Rolleyes (1)
Ваш часовий пояс: GMT + 2 Години

Нова тема   Відповісти