Коко / Coco (2017) 720p (60 fps) Ukr/Eng | Sub Eng

Нові коментарі

Нова тема   Відповісти
Автор Повідомлення
Drool 
VIP


З нами з: 17.04.10
Востаннє: 21.09.18
Повідомлень: 1474

2018-04-17 09:35  
Коко / Coco (2017) 720p (60 fps) Ukr/Eng | Sub Eng

Коко / Coco (2017) 720p (60 fps) Ukr/Eng | Sub Eng
Трейлер

Жанр: анімація, комедія, пригодницький
Країна: США


Дітям рекомендується дивитися фільм з батьками
Рекомендується присутність батьків. Деякий матеріал, можливо, не підходить для дітей. Цей рейтинг показує, що оцінений фільм може містити деякі сцени, проглядання яких маленькими дітьми може не сподобатися їх батькам. Матеріал, який може бути присутнім у фільмі, повинен бути пояснений і розібраний з дітьми перш, ніж їм дозволять відвідати фільм. Явні сексуальні сцени і сцени вживання наркотиків відсутні; нагота, якщо присутня, то тільки дуже обмежено, жах і насильство не перевищують середнього рівня.
Кінокомпанія: Walt Disney Pictures, Pixar Animation Studios
Режисер: Лі Анкріч, Адріан Моліна
Актори: Ентоні Гонсалес, Ґаель Ґарсіа Берналь, Бенджамін Бретт, Рені Віктор, Аланна Юбак, Хайме Каміль, Гебріел Іглесіас, Альфонсо Арау

Сюжет:
У роду мексиканського хлопчини Мігеля завжди була незрозуміла заборона на музику. Але для хлопчика не існує життя без мелодій, він хоче стати таким же відомим артистом, як його кумир Ернесто де ла Круз. Відчайдушно намагаючись довести, що він може стати музикантом, у день Свята мертвих, коли всі померлі приходять у наш світ, Мігель опиняється в неймовірному, яскравому і дуже красивому місці. Це Місто Мертвих – тут ніколи не було живої людини. Там Мігель зустрічає чудового фокусника Гектора, який стає провідником хлопчика в новому світі. Мігель має можливість навіть знайти своїх померлих близьких, поспілкуватися з ними і зрозуміти, звідки взялася ця дивна заборона на музику. Мертві живуть зовсім не так, як ми думаємо – це варто побачити на власні очі!


Тривалість: 01:45:02
Якість: 720p
Відео:
кодек:
розмір кадру: 1280x536
бітрейт: 5130 кб/с
кадрів на секунду: 60.000 к/с

Аудіо #1:
мова: українська
переклад: професійний дубльований | студія LeDoyen
кодек: 2.0
бітрейт: 192 кб/с

Аудіо #2:
мова: англійська
переклад: оригінал
кодек: 5.1
бітрейт: 448 кб/с

Субтитри (форсовані) #1:
мова: українська
тип: програмні (м'які)
формат: *.srt

Субтитри (Full, SDH) #2, 3:
мова: англійська
тип: програмні (м'які)
формат: *.srt
Info
Код:
General
Unique ID                                : 53608090837768481554202724595885758402 (0x28548AF10C17AEE0BB20F4F1B60957C2)
Complete name                            : /mnt/disk_d/Video/Coco.2017.Ukr.Dub-2.0..720p.60fps.
Format                                   :
Format version                           : Version 4 / Version 2
File size                                : 4.24 GiB
Duration                                 : 1 h 45 min
Overall bit rate                         : 5 777 kb/s
Movie name                               : Коко / Coco (2017) 720p (60fps) | NNNB
Encoded date                             : UTC 2018-04-17 11:26:28
Writing application                      : v14.0.0 ('Flow') 64bit
Writing library                          : libebml v1.3.4 + v1.4.7
Cover                                    : Yes
Attachments                              : cover.png / cover

Video
ID                                       : 1
Format                                   : AVC
Format/Info                              : Advanced Video Codec
Format profile                           : [email protected]
Format settings                          : CABAC / 9 Ref Frames
Format settings, CABAC                   : Yes
Format settings, RefFrames               : 9 frames
Codec ID                                 : V_MPEG4/ISO/AVC
Duration                                 : 1 h 45 min
Bit rate                                 : 5 130 kb/s
Width                                    : 1 280 pixels
Height                                   : 536 pixels
Display aspect ratio                     : 2.40:1
Frame rate mode                          : Constant
Frame rate                               : 60.000 FPS
Color space                              : YUV
Chroma subsampling                       : 4:2:0
Bit depth                                : 8 bits
Scan type                                : Progressive
Bits/(Pixel*Frame)                       : 0.125
Stream size                              : 3.77 GiB (89%)
Title                                    : Коко / Coco (2017) 720p (60fps) | NNNB
Writing library                          : core 146 r2538 121396c
Encoding settings                        : cabac=1 / ref=9 / deblock=1:0:0 / analyse=0x3:0x113 / me=umh / subme=11 / psy=1 / psy_rd=1.00:0.00 / mixed_ref=1 / me_range=24 / chroma_me=1 / trellis=2 / 8x8dct=1 / cqm=0 / deadzone=21,11 / fast_pskip=0 / chroma_qp_offset=-2 / threads=12 / lookahead_threads=1 / sliced_threads=0 / nr=0 / decimate=1 / interlaced=0 / bluray_compat=0 / constrained_intra=0 / bframes=5 / b_pyramid=2 / b_adapt=2 / b_bias=0 / direct=3 / weightb=1 / open_gop=0 / weightp=2 / keyint=250 / keyint_min=25 / scenecut=40 / intra_refresh=0 / rc=2pass / mbtree=0 / bitrate=5130 / ratetol=1.0 / qcomp=0.60 / qpmin=0 / qpmax=69 / qpstep=4 / cplxblur=20.0 / qblur=0.5 / ip_ratio=1.40 / pb_ratio=1.30 / aq=3:1.00
Default                                  : Yes
Forced                                   : Yes

Audio #1
ID                                       : 2
Format                                   : AC-3
Format/Info                              : Audio Coding 3
Format settings, Endianness              : Big
Codec ID                                 : A_AC3
Duration                                 : 1 h 45 min
Bit rate mode                            : Constant
Bit rate                                 : 192 kb/s
Channel(s)                               : 2 channels
Channel positions                        : Front: L R
Sampling rate                            : 44.1 kHz
Frame rate                               : 28.711 FPS (1536 SPF)
Bit depth                                : 16 bits
Compression mode                         : Lossy
Stream size                              : 144 MiB (3%)
Title                                    : 2.0 @ 192 kbps
Language                                 : Ukrainian
Service kind                             : Complete Main
Default                                  : Yes
Forced                                   : Yes

Audio #2
ID                                       : 3
Format                                   : AC-3
Format/Info                              : Audio Coding 3
Format settings, Endianness              : Big
Codec ID                                 : A_AC3
Duration                                 : 1 h 45 min
Bit rate mode                            : Constant
Bit rate                                 : 448 kb/s
Channel(s)                               : 6 channels
Channel positions                        : Front: L C R, Side: L R, LFE
Sampling rate                            : 48.0 kHz
Frame rate                               : 31.250 FPS (1536 SPF)
Bit depth                                : 16 bits
Compression mode                         : Lossy
Stream size                              : 337 MiB (8%)
Title                                    : 5.1 @ 448 kbps
Language                                 : English
Service kind                             : Complete Main
Default                                  : No
Forced                                   : No

Text #1
ID                                       : 4
Format                                   : UTF-8
Codec ID                                 : S_TEXT/UTF8
Codec ID/Info                            : UTF-8 Plain Text
Duration                                 : 2 s 1 ms
Bit rate                                 : 127 b/s
Count of elements                        : 1
Stream size                              : 32.0 Bytes (0%)
Title                                    : Forced
Language                                 : Ukrainian
Default                                  : Yes
Forced                                   : Yes

Text #2
ID                                       : 5
Format                                   : UTF-8
Codec ID                                 : S_TEXT/UTF8
Codec ID/Info                            : UTF-8 Plain Text
Duration                                 : 1 h 37 min
Bit rate                                 : 63 b/s
Count of elements                        : 1441
Stream size                              : 45.6 KiB (0%)
Title                                    : Full
Language                                 : English
Default                                  : No
Forced                                   : No

Text #3
ID                                       : 6
Format                                   : UTF-8
Codec ID                                 : S_TEXT/UTF8
Codec ID/Info                            : UTF-8 Plain Text
Duration                                 : 1 h 38 min
Bit rate                                 : 77 b/s
Count of elements                        : 1722
Stream size                              : 55.9 KiB (0%)
Title                                    : SDH
Language                                 : English
Default                                  : No
Forced                                   : No

Menu
00:00:00.000                             : en:Chapter 1
00:06:40.191                             : en:Chapter 2
00:08:41.520                             : en:Chapter 3
00:11:13.589                             : en:Chapter 4
00:14:20.317                             : en:Chapter 5
00:17:06.942                             : en:Chapter 6
00:18:20.933                             : en:Chapter 7
00:22:05.991                             : en:Chapter 8
00:24:19.958                             : en:Chapter 9
00:27:44.829                             : en:Chapter 10
00:29:07.912                             : en:Chapter 11
00:32:15.308                             : en:Chapter 12
00:35:18.407                             : en:Chapter 13
00:41:25.524                             : en:Chapter 14
00:47:04.696                             : en:Chapter 15
00:50:54.175                             : en:Chapter 16
00:54:23.885                             : en:Chapter 17
00:56:45.026                             : en:Chapter 18
01:01:42.615                             : en:Chapter 19
01:03:28.137                             : en:Chapter 20
01:08:58.217                             : en:Chapter 21
01:15:17.262                             : en:Chapter 22
01:18:56.773                             : en:Chapter 23
01:21:31.761                             : en:Chapter 24
01:24:31.816                             : en:Chapter 25
01:28:23.464                             : en:Chapter 26
01:33:14.755                             : en:Chapter 27
01:36:10.472                             : en:Chapter 28
Скріншоти
Джерело відеоряду:
Аудіодоріжки та субтитри взято з релізу AVC.
Особиста оцінка: 8 - мені сподобалося


 Трекер:    Зареєстрований   

Завантажити / скачати мультфільм українською



відео для новачків



 Зареєстрований:   2018-04-17 15:04
 Розмір:   4.24 GB 
 Оцінка мультфільму:   9.6/10 (Голосів: 19)
   
Інші релізи
   Коко / Coco (2017) mini 1080p H.265 Ukr/Eng | Sub Eng igor302  10 / 0   4.64 GB   2018-07-11 16:17 
   Коко / Coco (2017) Remux 1080p Ukr/Eng | Sub Eng staf777  12 / 0   24.85 GB   2018-05-06 19:40 
   Коко / Coco (2017) 1080p Ukr/Eng | Sub Eng Electroz  21 / 0   9.47 GB   2018-05-06 12:03 
   Коко / Coco (2017) 720p Ukr/Eng | Sub Eng 11FrYkT  16 / 0   6.38 GB   2018-05-06 10:49 
   Коко / Coco (2017) AVC Ukr/Eng | Sub Eng 11FrYkT  74 / 0   2.07 GB   2018-05-06 10:45 
   Коко / Coco (2017) Ukr/Eng 11FrYkT  10 / 0   2.18 GB   2018-05-06 10:39 
   Коко / Coco (2017) Jatx_11  48 / 4   1.46 GB   2018-03-23 14:24 
11FrYkT 
Модератор відео


З нами з: 20.02.11
Востаннє: 21.09.18
Повідомлень: 5032

2018-04-17 12:48  
Drool написано:
Bits/(Pixel*Frame) : 0.125

це вже не міні, тому оригінальна доріжка обов*язкова

Drool 
VIP


З нами з: 17.04.10
Востаннє: 21.09.18
Повідомлень: 1474

2018-04-17 12:54  
11FrYkT написано:
це вже не міні, тому оригінальна доріжка обов*язкова
Оп, а скільки для мультів? Для фільмів знаю, що 0.159...
11FrYkT 
Модератор відео


З нами з: 20.02.11
Востаннє: 21.09.18
Повідомлень: 5032

2018-04-17 18:06  
Drool написано:
Оп, а скільки для мультів? Для фільмів знаю, що 0.159..

від 0.08 до 0.12

Ваш часовий пояс: GMT + 2 Години

Нова тема   Відповісти