Інфініті Надо / Infinity Nado (Сезон 3, 1 серія з 40) (2016) 720 Ukr/Eng

Нові коментарі

Нова тема   Відповісти
Автор Повідомлення
sergiyko.5 
VIP


З нами з: 25.02.16
Востаннє: 19.04.18
Повідомлень: 1453

2018-04-17 09:15  
Інфініті Надо / Infinity Nado (Сезон 3, 1 серія з 40) (2016) 720 Ukr/Eng


Інфініті Надо / Infinity Nado (Сезон 3, 1 серія з 40) (2016) 720 Ukr/Eng

Жанр: пригоди
Країна: Японія
Кінокомпанія: OLM (Team Abe)
Режисер: -

Сюжет:
Це історія таємничого явища. Несподівано десь на планеті Земля падає гігантська вежа і 20 гравців Інфініті Надо опиняються тут. Після спуску гравці зібралися разом, щоб утворити місто Інфініті Надо. Завдяки своїм особливим потужним навичкам та силі Надо, вони сформували збалансовану, наступально-оборонну і наполегливу команду обраних. Після небезпечних і цікавих пригод, героїчна четвірка нарешті наближається до башти Інфініті Надо, щоб кинути виклик провідним гравцям. По дорозі їм вдається викрити темний план іншого гравця-злодія, який хотів реформувати планету Земля і знищити людство. Для справедливості та миру Джин, Світанок, Девіс і Сесілья входять у центр башти, щоб зупинити своє обертання і врешті-решт перемогти злодіїв Інфініті Надо.


https://anidb.net/perl-bin/animedb.pl?show=anime&aid=12960

Тривалість: 1 серія: 23:00 (цілком серій: 1)
Якість:

Відео: кодек: розмір кадру: 1280 х 720 бітрейт: 2437 кб/с
Аудіо # 1: мова: українська переклад: професійний дубльований кодек: 2.0 бітрейт: 192 кб/с Джерело озвучення:
Аудіо # 2: мова: англійська переклад: професійний дубльований кодек: 2.0 бітрейт: 192 кб/с
Перелік серій
01.Awakened Nado - Пробудження Надо
Info
General
Unique ID : 254737129743261112628864952815745064906 (0xBFA4962C33E6D0059A13110796455FCA)
Complete name : E:\MULTFILMS\Infinity Nado S03 720p \Infinity Nado.S03E01.Awakened Nado.720p..
Format :
Format version : Version 4 / Version 2
File size : 464 MiB
Duration : 22 min 59 s
Overall bit rate : 2 823 kb/s
Movie name : Infinity Nado S03 720p by sergiyko
Encoded date : UTC 2018-04-17 06:07:38
Writing application : mkvmerge v22.0.0 ('At The End Of The World') 64-bit
Writing library : libebml v1.3.5 + libmatroska v1.4.8

Video
ID : 1
Format : AVC
Format/Info : Advanced Video Codec
Format profile : [email protected]
Format settings, CABAC : Yes
Format settings, ReFrames : 5 frames
Codec ID : V_MPEG4/ISO/AVC
Duration : 22 min 59 s
Bit rate : 2 437 kb/s
Width : 1 280 pixels
Height : 720 pixels
Display aspect ratio : 16:9
Frame rate mode : Constant
Frame rate : 25.000 FPS
Color space : YUV
Chroma subsampling : 4:2:0
Bit depth : 8 bits
Scan type : Progressive
Bits/(Pixel*Frame) : 0.106
Stream size : 401 MiB (86%)
Title : S03E01 Awakened Nado
Writing library : core 152 r2851 ba24899
Encoding settings : cabac=1 / ref=5 / deblock=1:-1:0 / analyse=0x3:0x113 / me=hex / subme=9 / psy=1 / psy_rd=0.40:0.00 / mixed_ref=1 / me_range=16 / chroma_me=1 / trellis=2 / 8x8dct=1 / cqm=0 / deadzone=21,11 / fast_pskip=1 / chroma_qp_offset=-2 / threads=22 / lookahead_threads=1 / sliced_threads=0 / nr=0 / decimate=0 / interlaced=0 / bluray_compat=0 / constrained_intra=0 / bframes=5 / b_pyramid=2 / b_adapt=1 / b_bias=0 / direct=3 / weightb=1 / open_gop=0 / weightp=2 / keyint=250 / keyint_min=25 / scenecut=40 / intra_refresh=0 / rc_lookahead=50 / rc=crf / mbtree=1 / crf=18.0 / qcomp=0.70 / qpmin=0 / qpmax=69 / qpstep=4 / vbv_maxrate=14000 / vbv_bufsize=14000 / crf_max=0.0 / nal_hrd=none / filler=0 / ip_ratio=1.40 / aq=1:0.60
Language : English
Default : Yes
Forced : No

Audio #1
ID : 2
Format : AC-3
Format/Info : Audio Coding 3
Mode extension : CM (complete main)
Format settings, Endianness : Big
Codec ID : A_AC3
Duration : 22 min 59 s
Bit rate mode : Constant
Bit rate : 192 kb/s
Channel(s) : 2 channels
Channel positions : Front: L R
Sampling rate : 48.0 kHz
Frame rate : 31.250 FPS (1536 spf)
Bit depth : 16 bits
Compression mode : Lossy
Stream size : 31.6 MiB (7%)
Title : DUB | ПлюсПлюс
Language : Ukrainian
Default : Yes
Forced : Yes

Audio #2
ID : 3
Format : AC-3
Format/Info : Audio Coding 3
Mode extension : CM (complete main)
Format settings, Endianness : Big
Codec ID : A_AC3
Duration : 22 min 59 s
Bit rate mode : Constant
Bit rate : 192 kb/s
Channel(s) : 2 channels
Channel positions : Front: L R
Sampling rate : 48.0 kHz
Frame rate : 31.250 FPS (1536 spf)
Bit depth : 16 bits
Compression mode : Lossy
Stream size : 31.6 MiB (7%)
Language : English
Default : No
Forced : No
Скріншоти:


Автор запису/зведення: sergiyko


Бронзовий реліз (на рейтинг впливає 75% завантаженого)
 Трекер:    Зареєстрований   

Завантажити / скачати аніме українською



відео для новачків



 Зареєстрований:   2018-04-17 09:15
 Розмір:   464 MB 
 Оцінка аніме:   10/10 (Голосів: 1)
   
Ваш часовий пояс: GMT + 2 Години

Нова тема   Відповісти