Пасажир / The Commuter (2018) 720p Ukr/Eng | Sub Eng

Нові коментарі

Нова тема   Відповісти
Автор Повідомлення
Anonymous 







2018-04-17 07:49  
Пасажир / The Commuter (2018) 720p Ukr/Eng | Sub Eng

Пасажир / The Commuter (2018) 720p Ukr/Eng | Sub Eng


Жанр: бойовик, детектив, трилер
Країна: США, Велика Британія, Франція



Кінокомпанія: StudioCanal
Режисер: Хауме Кольєт-Серра / Jaume Collet-Serra
Актори: Ліам Нісон / Liam Neeson, Віра Фарміґа / Vera Farmiga, Патрік Вілсон / Patrick Wilson, Сем Нілл / Sam Neill, Джонатан Бенкс / Jonathan Banks, Елізабет МакҐоверн / Elizabeth McGovern, Флоренс П'ю / Florence Pugh, Кілліан Скотт / Killian Scott, Шазад Латіф / Shazad Latif, Енді Найман / Andy Nyman, Клара Лаго / Clara Lago та інші

Сюжет:
Життя страхового агента Майкла (Ліам Нісон) благополучне та розмірене. Щодня він їде на роботу по одному й тому самому маршруту. У поїзді поряд із ним одного разу сідає Джоанна (Віра Фарміга) – дивна жінка, що пропонує взяти участь у соціальному експерименті. Нагорода за незначну допомогу складе 75 тисяч доларів. З кожною хвилиною стає зрозумілішим, що ця безглузда афера призведе до непоправних наслідків. На жаль, ані змінити правила, ані вийти з гри Майкл вже не може. Тож все що йому лишається – спробувати вийти з потягу.


Тривалість: 01:44:55
Якість: 720p
Відео:
кодек:
розмір кадру: 1280 х 536
бітрейт: 6289 кб/с

Аудіо # 1:
мова: українська
переклад: професійний дубльований | студія ААА-sound
кодек: 5.1
бітрейт: 640 кб/с
Інформація про дубляж
Переклад: Юлія Когут
Режисер дубляжу та звукорежисер перезапису: Олександр Єфімов
Ролі дублювали: Дмитро Завадський, Олена Узлюк, Роман Чорний, Юлія Перенчук, Дмитро Сова, Антоніна Якушева, Кирило Нікітенко, Євген Пашин, Ірина Грей, Юрій Ребрик, Катерина Буцька, Андрій Альохін, Ярослав Чорненький, Іван Розін, Михайло Кришталь, Павло Скороходько та інші.

Фільм дубльовано студією ААА-sound у 2018 році на замовлення компанії "Вольга Україна".
Аудіо # 2:
мова: українська
переклад: професійний дубльований | студія ААА-sound
кодек: 5.1
бітрейт: 1509 кб/с

Аудіо # 3:
мова: англійська
переклад: оригінал
кодек: 5.1
бітрейт: 448 кб/с

Субтитри # 1-3:
мова: англійська (повні, SHD, SHD кольорові)
тип: програмні (м'які)
формат: *.srt

Збережено оригінальні розділи, як на Blu-ray
Info
Код:
General
Unique ID                   : 184524382702597851248428772127749692412 (0x8AD21A792F9831E588B03177D7DBDBFC)
Complete name               : The Commuter (2018) [Ukr,Eng sub.Eng] 720p [Hurtom].
Format                      :
Format version              : Version 4
File size                   : 6.51 GiB
Duration                    : 1 h 44 min
Overall bit rate            : 8 885 kb/s
Movie name                  : Пасажир / The Commuter (2018) [Ukr,Eng sub.Eng] 720p [Hurtom]
Released date               : 2018
Encoded date                : UTC 2018-10-12 17:35:39
Writing application         : v27.0.0 ('Metropolis') 64-bit
Writing library             : libebml v1.3.6 + v1.4.9
Cover                       : Yes
Comment                     : http://www.imdb.com/title/tt1590193/
Attachments                 : cover.jpg
ARTIST                      : Ліам Нісон / Liam Neeson, Віра Фарміґа / Vera Farmiga, Патрік Вілсон / Patrick Wilson, Сем Нілл / Sam Neill, Джонатан Бенкс / Jonathan Banks, Елізабет МакҐоверн / Elizabeth McGovern, Флоренс П'ю / Florence Pugh, Кілліан Скотт / Killian Scott, Шазад Латіф / Shazad Latif, Енді Найман / Andy Nyman, Клара Лаго / Clara Lago та інші
DIRECTOR                    : Хауме Кольєт-Серра / Jaume Collet-Serra
GENRE                       : бойовик, детектив, трилер
SYNOPSIS                    : Життя страхового агента Майкла (Ліам Нісон) благополучне та розмірене. Щодня він їде на роботу по одному й тому самому маршруту. У поїзді поряд із ним одного разу сідає Джоанна (Віра Фарміга) – дивна жінка, що пропонує взяти участь у соціальному експерименті. Нагорода за незначну допомогу складе 75 тисяч доларів. З кожною хвилиною стає зрозумілішим, що ця безглузда афера призведе до непоправних наслідків. На жаль, ані змінити правила, ані вийти з гри Майкл вже не може. Тож все що йому лишається – спробувати вийти з потягу...
Url                         : https://toloka.to/t89396

Video
ID                          : 1
Format                      : AVC
Format/Info                 : Advanced Video Codec
Format profile              : [email protected]
Format settings             : CABAC / 12 Ref Frames
Format settings, CABAC      : Yes
Format settings, ReFrames   : 12 frames
Codec ID                    : V_MPEG4/ISO/AVC
Duration                    : 1 h 44 min
Bit rate                    : 6 289 kb/s
Width                       : 1 280 pixels
Height                      : 536 pixels
Display aspect ratio        : 2.40:1
Frame rate mode             : Constant
Frame rate                  : 23.976 (24000/1001) FPS
Color space                 : YUV
Chroma subsampling          : 4:2:0
Bit depth                   : 8 bits
Scan type                   : Progressive
Bits/(Pixel*Frame)          : 0.382
Stream size                 : 4.61 GiB (71%)
Title                       : Пасажир / The Commuter (2018) 720p [ExKinoRay]
Writing library             : core 148 r2705 3f5ed56
Encoding settings           : cabac=1 / ref=12 / deblock=1:-2:-2 / analyse=0x3:0x133 / me=umh / subme=11 / psy=1 / psy_rd=1.05:0.05 / mixed_ref=1 / me_range=48 / chroma_me=1 / trellis=2 / 8x8dct=1 / cqm=0 / deadzone=21,11 / fast_pskip=0 / chroma_qp_offset=-3 / threads=24 / lookahead_threads=4 / sliced_threads=0 / nr=0 / decimate=0 / interlaced=0 / bluray_compat=0 / constrained_intra=0 / bframes=10 / b_pyramid=2 / b_adapt=2 / b_bias=0 / direct=3 / weightb=1 / open_gop=0 / weightp=2 / keyint=240 / keyint_min=23 / scenecut=40 / intra_refresh=0 / rc_lookahead=50 / rc=2pass / mbtree=0 / bitrate=6289 / ratetol=1.0 / qcomp=0.60 / qpmin=0 / qpmax=51 / qpstep=4 / cplxblur=20.0 / qblur=0.5 / vbv_maxrate=50000 / vbv_bufsize=62500 / nal_hrd=none / filler=0 / ip_ratio=1.40 / pb_ratio=1.30 / aq=3:0.80
Language                    : English
Default                     : Yes
Forced                      : No

Audio #1
ID                          : 2
Format                      : AC-3
Format/Info                 : Audio Coding 3
Commercial name             : Dolby Digital
Codec ID                    : A_AC3
Duration                    : 1 h 44 min
Bit rate mode               : Constant
Bit rate                    : 640 kb/s
Channel(s)                  : 6 channels
Channel layout              : L R C LFE Ls Rs
Sampling rate               : 48.0 kHz
Frame rate                  : 31.250 FPS (1536 SPF)
Bit depth                   : 16 bits
Compression mode            : Lossy
Stream size                 : 480 MiB (7%)
Title                       : Dub [AAA-sound, Hurtom] 5.1 640 Kbps
Language                    : Ukrainian
Service kind                : Complete Main
Default                     : Yes
Forced                      : No

Audio #2
ID                          : 3
Format                      :
Format/Info                 : Digital Theater Systems
Codec ID                    : A_DTS
Duration                    : 1 h 44 min
Bit rate mode               : Constant
Bit rate                    : 1 509 kb/s
Channel(s)                  : 6 channels
Channel layout              : C L R Ls Rs LFE
Sampling rate               : 48.0 kHz
Frame rate                  : 93.750 FPS (512 SPF)
Bit depth                   : 24 bits
Compression mode            : Lossy
Stream size                 : 1.11 GiB (17%)
Title                       : Dub [AAA-sound, Hurtom] 5.1 1509 Kbps
Language                    : Ukrainian
Default                     : No
Forced                      : No

Audio #3
ID                          : 4
Format                      : AC-3
Format/Info                 : Audio Coding 3
Commercial name             : Dolby Digital
Codec ID                    : A_AC3
Duration                    : 1 h 44 min
Bit rate mode               : Constant
Bit rate                    : 448 kb/s
Channel(s)                  : 6 channels
Channel layout              : L R C LFE Ls Rs
Sampling rate               : 48.0 kHz
Frame rate                  : 31.250 FPS (1536 SPF)
Bit depth                   : 16 bits
Compression mode            : Lossy
Stream size                 : 336 MiB (5%)
Title                       : Original, 5.1 448 Kbps
Language                    : English
Service kind                : Complete Main
Default                     : No
Forced                      : No

Text #1
ID                          : 5
Format                      : UTF-8
Codec ID                    : S_TEXT/UTF8
Codec ID/Info               : UTF-8 Plain Text
Duration                    : 1 h 37 min
Bit rate                    : 64 b/s
Count of elements           : 1342
Stream size                 : 46.0 KiB (0%)
Title                       : Eng Full
Language                    : English
Default                     : No
Forced                      : No

Text #2
ID                          : 6
Format                      : UTF-8
Codec ID                    : S_TEXT/UTF8
Codec ID/Info               : UTF-8 Plain Text
Duration                    : 1 h 37 min
Bit rate                    : 71 b/s
Count of elements           : 1594
Stream size                 : 51.3 KiB (0%)
Title                       : Eng SDH
Language                    : English
Default                     : No
Forced                      : No

Text #3
ID                          : 7
Format                      : UTF-8
Codec ID                    : S_TEXT/UTF8
Codec ID/Info               : UTF-8 Plain Text
Duration                    : 1 h 37 min
Bit rate                    : 107 b/s
Count of elements           : 1594
Stream size                 : 77.1 KiB (0%)
Title                       : Eng SDH Colored
Language                    : English
Default                     : No
Forced                      : No

Menu
00:00:00.000                : en:00:00:00.000
00:05:38.255                : en:00:05:38.255
00:12:23.493                : en:00:12:23.493
00:16:54.472                : en:00:16:54.472
00:25:36.118                : en:00:25:36.118
00:32:20.855                : en:00:32:20.855
00:41:37.954                : en:00:41:37.954
00:44:38.217                : en:00:44:38.217
00:52:38.989                : en:00:52:38.989
00:59:30.650                : en:00:59:30.650
01:04:50.845                : en:01:04:50.845
01:11:53.517                : en:01:11:53.517
01:20:23.318                : en:01:20:23.318
01:25:23.160                : en:01:25:23.160
01:30:45.648                : en:01:30:45.648
01:37:26.340                : en:01:37:26.340


Джерело: &
Подяка Hanway'ю за створення якісного звуку.

12.10.2018 реліз оновлено: українську стереодоріжку з замінено на якісну 5.1


 Трекер:    Зареєстрований   

Завантажити / скачати фільм українською



відео для новачків



 Зареєстрований:   2018-10-12 19:44
 Розмір:   6.51 GB 
 Оцінка фільму:   8.9/10 (Голосів: 53)
 ЗАЛИШАЙТЕСЬ ЯКОМОГА ДОВШЕ НА РОЗДАЧІ! ЗАВАНТАЖИВ САМ - ДАЙ ЗАВАНТАЖИТИ ІНШИМ!
   
Інші релізи
   Пасажир / The Commuter (2018) igor911  65 / 0   1.46 GB   2018-10-12 19:29 
   Пасажир / The Commuter (2018) Remux 1080p Ukr/Eng | Sub Eng staf777  14 / 0   32.78 GB   2018-10-10 13:15 
   Пасажир / The Commuter (2018) AVC Ukr/Eng | Sub Eng Electroz  100 / 3   1.97 GB   2018-10-09 21:29 
   Пасажир / The Commuter (2018) 1080p Ukr/Eng | Sub Eng Electroz  28 / 1   9.82 GB   2018-10-09 21:26 
Panther2214 
Поважний учасник


З нами з: 29.09.17
Востаннє: 18.11.18
Повідомлень: 152

2018-04-17 22:35  
Найбільше вразила цитата "' Ти хочеш вчинити шляхетно, але я тобі скажу - шляхетності не існує" - ось головна загадка сюжету, щодо фільму не пожалієте детектив з елементами логіки та ребусами, який накопичує емоції в кінці фільму. мабуть найкраща роль Нісона в загальному сподобався і дуже вражений від сценарію
Kamper 
Частий відвідувач


З нами з: 21.01.13
Востаннє: 18.11.18
Повідомлень: 35

2018-04-21 00:38  
Приємний фільм, а перші 6 хвилин треба виділити окремо - мистецтво.
Lil`Antoni 
VIP


З нами з: 25.02.12
Востаннє: 18.11.18
Повідомлень: 635

2018-07-02 17:34  
Гарнйи фільм. Тримає в напрузі. До колекції не додам на разі,
Та вартий уваги

Estranded 
VIP


З нами з: 09.02.14
Востаннє: 18.11.18
Повідомлень: 1231

2018-08-19 13:45  
Місцями фільм дійсно захоплює, а місцями стає нудно.
Дивитися можна, але таке собі, мені не зайшло.
5/10 — посередній фільм

oiikloiko 
Новенький


З нами з: 04.11.12
Востаннє: 17.11.18
Повідомлень: 17

2018-10-10 23:12  
Цей фільм можна характеризувати так:
Я вже щось подібне бачив декілька разів...
Якось наївно все в кіно, але при цьому можна дивитись.
6/10

Цей фільм

Anonymous 







2018-10-12 19:47  
Реліз оновлено: українську стереодоріжку замінено на якісну 5.1
"золото" на тиждень для заохочення підтримки релізу

hatak 
Свій


З нами з: 30.04.15
Востаннє: 18.11.18
Повідомлень: 63

2018-10-22 21:58  
Може фільм і шедевр, але мені не зайшов. Не знаю, що саме вплинуло, але після першої половини стало просто не цікаво чим все закінчиться... Якесь дивне відчуття того, що все там вже сплановано кимось до дрібниць наперед і якесь невидиме всевидяче око всіх бачить і т.п., і доля кожного персонажу вже вирішена. Тому якогось співпереживання до головного героя не було. Від кінцівки очікував значно більшого — все так закручувалось, а виявилась банальна корупційна схема.
Ваш часовий пояс: GMT + 2 Години

Нова тема   Відповісти