Кінець Світу / The World's End (2013) 1080p 3xUkr/Eng | Sub Ukr/Eng

Нові коментарі

Нова тема   Відповісти
Автор Повідомлення
staf777 
Відео Гуртом - підтримка та поширення
Відео Гуртом - підтримка та поширення


З нами з: 16.11.16
Востаннє: 18.04.19
Повідомлень: 2258

2018-04-16 19:07  
Кінець Світу / The World's End (2013) 1080p 3xUkr/Eng | Sub Ukr/Eng



Жанр: комедія, фантастика
Країна: Англія, США, Японія



Кінокомпанія: Big Talk Productions, Relativity Media, Working Title Films
Режисер: Едгар Райт
Актори: АСаймон Пегг, Нік Фрост, Педді Консидайн, Мартін Фріман, Едді Марсан, Розамунд Пайк, Пірс Броснан, Девід Бредлі, Майкл Смайлі, Стів Орам та інші.

Сюжет:
П'ятеро друзів дитинства, що знову зібрались через 20 років, аби нарешті подолати епічний шлях пивного паломництва, випадково стають останньою надією на порятунок для усього людства.....




Тривалість: 01:49:07
Якість: 1080p
Відео:
кодек:
розмір кадру: 1920x816
бітрейт: 18 Mб/с

Аудіо # 1:
мова: українська
переклад: багатоголосий закадровий | Омікрон
кодек: 5.1
бітрейт: 1509 кб/с

Українською мовою озвучено студією Омікрон на замовлення HURTOM.COM


Аудіо # 2:
мова: українська
переклад: багатоголосий закадровий | Омікрон
кодек: 5.1
бітрейт: 448 кб/с

Аудіо # 3:
мова: українська
переклад: багатоголосий закадровий | Воля Cine+
кодек: 2.0
бітрейт: 192 кб/с

Аудіо # 4:
мова: українська
переклад: багатоголосий закадровий | NLO
кодек: 2.0
бітрейт: 192 кб/с

Аудіо # 5:
мова: англійська
переклад: оригінал
кодек: 5.1
бітрейт: 1509 кб/с

Субтитри # 1:
мова: українська
тип: програмні (м'які)
формат: *.srt

Субтитри # 2-4: (Full, SHD, SDH-COLORED)
мова: англійська
тип: програмні (м'які)
формат: *.srt
Info
Код:
General
Unique ID                   : 126093118888375304001887905841026311634 (0x5EDCA6BE88E8072B6838952B94C225D2)
Complete name               : I:\» HD українською » Фільми в HD\Комедія\The World's End (2013) 1080p [3xUkr][Eng] [Sub Ukr Eng][Hurtom] .
Format                      :
Format version              : Version 4
File size                   : 16.6 GiB
Duration                    : 1 h 49 min
Overall bit rate            : 21.8 Mb/s
Movie name                  : The World's End (2013) 1080p [3xUkr][Eng] [Sub Ukr Eng][Hurtom]
Encoded date                : UTC 2019-02-16 13:16:17
Writing application         : v30.1.0 ('Forever And More') 64-bit
Writing library             : libebml v1.3.6 + v1.4.9
Cover                       : Yes
Attachments                 : cover.jpg

Video
ID                          : 1
Format                      : AVC
Format/Info                 : Advanced Video Codec
Format profile              : [email protected]
Format settings             : CABAC / 5 Ref Frames
Format settings, CABAC      : Yes
Format settings, ReFrames   : 5 frames
Codec ID                    : V_MPEG4/ISO/AVC
Duration                    : 1 h 49 min
Bit rate                    : 18.0 Mb/s
Width                       : 1 920 pixels
Height                      : 816 pixels
Display aspect ratio        : 2.35:1
Frame rate mode             : Constant
Frame rate                  : 23.976 (24000/1001) FPS
Color space                 : YUV
Chroma subsampling          : 4:2:0
Bit depth                   : 8 bits
Scan type                   : Progressive
Bits/(Pixel*Frame)          : 0.478
Stream size                 : 13.7 GiB (82%)
Title                       : The World's End (2013) - Release for HDCLUB
Writing library             : core 140 r2377kMod 1ca7bb9
Encoding settings           : cabac=1 / ref=5 / deblock=1:-3:-3 / analyse=0x3:0x133 / me=umh / subme=10 / psy=1 / fade_compensate=0.00 / psy_rd=1.10:0.00 / mixed_ref=1 / me_range=48 / chroma_me=1 / trellis=2 / 8x8dct=1 / cqm=0 / deadzone=21,11 / fast_pskip=0 / chroma_qp_offset=-2 / threads=12 / lookahead_threads=2 / sliced_threads=0 / nr=0 / decimate=1 / interlaced=0 / bluray_compat=0 / constrained_intra=0 / fgo=0 / bframes=7 / b_pyramid=2 / b_adapt=2 / b_bias=0 / direct=3 / weightb=1 / open_gop=0 / weightp=2 / keyint=250 / keyint_min=23 / scenecut=40 / intra_refresh=0 / rc=crf / mbtree=0 / crf=17.2500 / qcomp=0.60 / qpmin=0 / qpmax=69 / qpstep=4 / ip_ratio=1.30 / pb_ratio=1.20 / aq=1:0.85
Language                    : English
Default                     : Yes
Forced                      : No

Audio #1
ID                          : 2
Format                      :
Format/Info                 : Digital Theater Systems
Codec ID                    : A_DTS
Duration                    : 1 h 49 min
Bit rate mode               : Constant
Bit rate                    : 1 509 kb/s
Channel(s)                  : 6 channels
Channel layout              : C L R Ls Rs LFE
Sampling rate               : 48.0 kHz
Frame rate                  : 93.750 FPS (512 SPF)
Bit depth                   : 24 bits
Compression mode            : Lossy
Stream size                 : 1.15 GiB (7%)
Language                    : Ukrainian
Default                     : Yes
Forced                      : Yes

Audio #2
ID                          : 3
Format                      : AC-3
Format/Info                 : Audio Coding 3
Commercial name             : Dolby Digital
Codec ID                    : A_AC3
Duration                    : 1 h 49 min
Bit rate mode               : Constant
Bit rate                    : 448 kb/s
Channel(s)                  : 6 channels
Channel layout              : L R C LFE Ls Rs
Sampling rate               : 48.0 kHz
Frame rate                  : 31.250 FPS (1536 SPF)
Bit depth                   : 16 bits
Compression mode            : Lossy
Stream size                 : 350 MiB (2%)
Title                       : Озвучено студією Омікрон на замовлення hurtom.com
Language                    : Ukrainian
Service kind                : Complete Main
Default                     : No
Forced                      : No

Audio #3
ID                          : 4
Format                      : AC-3
Format/Info                 : Audio Coding 3
Commercial name             : Dolby Digital
Codec ID                    : A_AC3
Duration                    : 1 h 49 min
Bit rate mode               : Constant
Bit rate                    : 192 kb/s
Channel(s)                  : 2 channels
Channel layout              : L R
Sampling rate               : 48.0 kHz
Frame rate                  : 31.250 FPS (1536 SPF)
Bit depth                   : 16 bits
Compression mode            : Lossy
Stream size                 : 150 MiB (1%)
Title                       : Воля Cine+
Language                    : Ukrainian
Service kind                : Complete Main
Default                     : No
Forced                      : No

Audio #4
ID                          : 5
Format                      : AC-3
Format/Info                 : Audio Coding 3
Commercial name             : Dolby Digital
Codec ID                    : A_AC3
Duration                    : 1 h 49 min
Bit rate mode               : Constant
Bit rate                    : 192 kb/s
Channel(s)                  : 2 channels
Channel layout              : L R
Sampling rate               : 48.0 kHz
Frame rate                  : 31.250 FPS (1536 SPF)
Bit depth                   : 16 bits
Compression mode            : Lossy
Stream size                 : 150 MiB (1%)
Title                       : MVO [NLO], 2.0 192 Kbps
Language                    : Ukrainian
Service kind                : Complete Main
Default                     : No
Forced                      : No

Audio #5
ID                          : 6
Format                      :
Format/Info                 : Digital Theater Systems
Codec ID                    : A_DTS
Duration                    : 1 h 49 min
Bit rate mode               : Constant
Bit rate                    : 1 509 kb/s
Channel(s)                  : 6 channels
Channel layout              : C L R Ls Rs LFE
Sampling rate               : 48.0 kHz
Frame rate                  : 93.750 FPS (512 SPF)
Bit depth                   : 24 bits
Compression mode            : Lossy
Delay relative to video     : 11 ms
Stream size                 : 1.15 GiB (7%)
Title                       : 5.1 @ 1536 kbps
Language                    : English
Default                     : No
Forced                      : No

Text #1
ID                          : 7
Format                      : UTF-8
Codec ID                    : S_TEXT/UTF8
Codec ID/Info               : UTF-8 Plain Text
Duration                    : 1 h 48 min
Bit rate                    : 131 b/s
Count of elements           : 1727
Stream size                 : 104 KiB (0%)
Title                       : Blu-ray CEE
Language                    : Ukrainian
Default                     : No
Forced                      : No

Text #2
ID                          : 8
Format                      : UTF-8
Codec ID                    : S_TEXT/UTF8
Codec ID/Info               : UTF-8 Plain Text
Duration                    : 1 h 42 min
Bit rate                    : 84 b/s
Count of elements           : 1749
Stream size                 : 64.1 KiB (0%)
Language                    : English
Default                     : No
Forced                      : No

Text #3
ID                          : 9
Format                      : UTF-8
Codec ID                    : S_TEXT/UTF8
Codec ID/Info               : UTF-8 Plain Text
Duration                    : 1 h 43 min
Bit rate                    : 87 b/s
Count of elements           : 1863
Stream size                 : 66.6 KiB (0%)
Title                       : SDH
Language                    : English
Default                     : No
Forced                      : No

Text #4
ID                          : 10
Format                      : UTF-8
Codec ID                    : S_TEXT/UTF8
Codec ID/Info               : UTF-8 Plain Text
Duration                    : 1 h 43 min
Bit rate                    : 96 b/s
Count of elements           : 1863
Stream size                 : 73.4 KiB (0%)
Title                       : SDH-COLORED
Language                    : English
Default                     : No
Forced                      : No

Menu
00:00:00.000                : en:
00:05:38.296                : en:
00:10:33.007                : en:
00:15:34.767                : en:
00:19:56.695                : en:
00:25:23.980                : en:
00:30:07.180                : en:
00:36:09.750                : en:
00:42:40.266                : en:
00:46:17.232                : en:
00:50:20.017                : en:
00:57:20.728                : en:
01:02:29.203                : en:
01:06:30.736                : en:
01:12:17.124                : en:
01:18:37.003                : en:
01:23:51.192                : en:
01:26:45.783                : en:
01:35:16.752                : en:
01:42:20.217                : en:
Скріншоти




За звук з Cine+ та НЛО подяка sando7.

Джерело: &
Особиста оцінка: 10 - без зайвих вагань рекомендую всім!


Авторський реліз (завантажувати можна без реєстрації)
 Трекер:    Зареєстрований   

Завантажити / скачати фільм українською



відео для новачків



 Зареєстрований:   2019-02-16 17:07
 Розмір:   16.62 GB 
 Оцінка фільму:   6.9/10 (Голосів: 17)
   
Інші релізи
   Кінець Світу / The World's End (2013) AVC 3xUkr/Eng| sub Ukr/Eng Sando7  15 / 1   2.45 GB   2019-02-15 10:51 
   Кінець Світу / The World's End (2013) 1080p H.265 2xUkr/Eng | Sub Ukr/Eng -Star-Lord-  7 / 0   8.17 GB   2018-09-11 16:31 
   Кінець Світу / The World's End (2013) Remux Ukr/Eng | Sub Ukr/Eng Omikron  3 / 1   28.52 GB   2014-04-14 02:07 
   Кінець світу / The World's End (2013) 720р Ukr/Eng | Sub Ukr/Eng kino.  3 / 0   7.09 GB   2014-04-08 19:08 
   Кінець Світу / The World's End (2013) AVC patriot2305  2 / 0   2.4 GB   2014-04-08 18:58 
   Кінець Світу / The World's End (2013) Omikron  10 / 0   1.45 GB   2014-04-07 21:49 
   Кінець Світу / The World's End (2013) 720p Ukr/Eng | Sub Ukr/Eng Omikron  6 / 0   3.48 GB   2014-04-07 21:49 
   Кінець світу / The World's End (2013) Eng | sub Ukr patriot2305  0 / 0   1.42 GB   2014-01-18 11:47 
-_-B_E_N_D_E_R-_- 
Забанено
Забанено


З нами з: 09.01.14
Востаннє: 22.05.18
Повідомлень: 902

2018-04-16 19:51  
Це плагіат.

Додано через 8 хвилин 29 секунд:

Цей реліз ще наче не помер https://toloka.to/t55466 тож доріжку можна звідти взяти

staf777 
Відео Гуртом - підтримка та поширення
Відео Гуртом - підтримка та поширення


З нами з: 16.11.16
Востаннє: 18.04.19
Повідомлень: 2258

2018-04-16 20:22  
-_-B_E_N_D_E_R-_- написано:
Цей реліз ще наче не помер https://toloka.to/t55466 тож доріжку можна звідти взяти

HD MA? до БДРіпу це забагато

-_-B_E_N_D_E_R-_- 
Забанено
Забанено


З нами з: 09.01.14
Востаннє: 22.05.18
Повідомлень: 902

2018-04-16 20:37  
Atamanchuk_Serg 
Новенький


З нами з: 28.10.17
Востаннє: 10.04.19
Повідомлень: 4

2018-04-22 17:12  
Не витрачайте свій час на це.
-_-В_E_N_D_E_R-_- 
Забанено
Забанено


З нами з: 22.04.18
Востаннє: 24.06.18
Повідомлень: 187

2018-04-22 17:28  
Atamanchuk_Serg
Та чому? веселий фільм

bot 
робот


З нами з: 30.09.07
Востаннє: 26.05.05
Повідомлень: 21201

2018-04-25 20:02  
Тему перенесено з Анонси релізів до форуму Фільми в HD


staf777

-_-В_E_N_D_E_R-_- 
Забанено
Забанено


З нами з: 22.04.18
Востаннє: 24.06.18
Повідомлень: 187

2018-04-25 20:34  
Щоб отримати з " HD MA" просто "" при збиранні в mkvtoolnix натисни на HD MA доріжці і справа постав галочку там де на скріні обведено.

staf777 
Відео Гуртом - підтримка та поширення
Відео Гуртом - підтримка та поширення


З нами з: 16.11.16
Востаннє: 18.04.19
Повідомлень: 2258

2018-04-25 20:54  
-_-В_E_N_D_E_R-_-
Дякую але я не качав Remux - пошкодив інтернет-кабель зараз проблема зі швидкістю

11FrYkT 
Модератор відео


З нами з: 20.02.11
Востаннє: 18.04.19
Повідомлень: 5787

2018-04-25 21:54  
staf777 написано:
Дякую але я не качав Remux - пошкодив інтернет-кабель зараз проблема зі швидкістю

попросіть хай хтось кине, або як налагодите зв*язок зробіть самі, 448 залиште а ще 1 потавте 1536 кбпс

staf777 
Відео Гуртом - підтримка та поширення
Відео Гуртом - підтримка та поширення


З нами з: 16.11.16
Востаннє: 18.04.19
Повідомлень: 2258

2018-04-28 09:47  
Додав 5.1 
staf777 
Відео Гуртом - підтримка та поширення
Відео Гуртом - підтримка та поширення


З нами з: 16.11.16
Востаннє: 18.04.19
Повідомлень: 2258

2019-02-16 17:36  
Додав доріжку від НЛО
igor911 
Відео Гуртом
Відео Гуртом


З нами з: 18.01.08
Востаннє: 18.04.19
Повідомлень: 12304

2019-02-17 01:00  
staf777, онови звіт Info.
staf777 
Відео Гуртом - підтримка та поширення
Відео Гуртом - підтримка та поширення


З нами з: 16.11.16
Востаннє: 18.04.19
Повідомлень: 2258

2019-02-17 23:24  
igor911
Оновив

Ваш часовий пояс: GMT + 2 Години

Нова тема   Відповісти