Район Беверлі-Хілз/Беверлі-Хілс 90210 (1 сезон) / Beverly Hills 90210 (season 1) (1990-1991) -AVC Ukr/Eng

Нові коментарі

Нова тема   Відповісти
Автор Повідомлення
Anonymous 







2018-04-16 17:40  
Район Беверлі-Хілз/Беверлі-Хілс 90210 (1 сезон) / Beverly Hills 90210 (season 1) (1990-1991) -AVC Ukr/Eng




Жанр: драма, романтичний
Країна: США


Кінокомпанія / телеканал: 90210 Productions, Fair Dinkum Productions, Propaganda Films
Режисер: Тім Гантер
Актори/ролі озвучують: Джейсон Прістлі, Шенен Догерті, Дженні Гарт, Ян Зірінг, Габріель Картеріс, Люк Перрі, Браян Остін Грін, Дуглас Емерсон, Торі Спелінг, Керол Поттер, Джеймс Екхаус

Сюжет:
«Беверлі-Хілс 90210» - серіал, який розповідає про життя молодих людей. Хлопці та дівчата, які проживають в багатому районі Беверлі Хілс. Хлопці проживають у фільмі ціле життя. Вони вчаться в школі, потім в коледжі, потім йдуть працювати. Серіал зачіпає величезну кількість соціальних проблем, які насущні і до цього дня. Це алкоголізм, залежність від наркотиків, згвалтування, права геїв, самогубство в ранньому віці і вагітність неповнолітніх. Фільм не обходиться і без романтики. Любов, побачення, поцілунки, палкі зустрічі, розставання, сварки і ненависть.


Тривалість: 1 серія: 42:00 (цілком серій: 22)
Перелік серій
1. Class of Beverly Hills
2. The Green Room
3. Every Dream Has Its Price
4. The First Time
5. One on One
6. Higher Education
7. Perfect Mom
8. The 17 Year Itch
9. The Gentle Art of Listening
10. Isn't It Romantic
11. B.Y.O.B.
12. One Man and a Baby
13. Slumber Party
14. East Side Story
15. A Fling in Palm Springs
16. Fame Is Where You Find It
17. Stand (Up) and Deliver
18. It's Only a Test
19. April Is the Cruelest Month
20. Spring Training
21. Spring Dance
22. Home Again
Якість:
Відео:
кодек:
розмір кадру: 704 х 480
бітрейт: 1400 - 2200 кб/с

Аудіо1:
мова: українська
переклад: багатоголосий закадровий
кодек: 2.0
бітрейт: 192 кб/с

Джерело озвучення:


Аудіо2:
мова: англійська
переклад: оригінал
кодек: 2.0
бітрейт: 192 кб/с
Скріншоти








Скріншоти 704х480

МІ
Complete name : E:\Beverly Hills 90210 (season 1)\01 - 2190000 - Class of Beverly Hills.
Format :
Format version : Version 4 / Version 2
File size : 1.17 GiB
Duration : 1 h 32 min
Overall bit rate : 1 813 kb/s
Encoded date : UTC 2018-02-23 20:47:39
Writing application : v8.8.0 ('Wind at my back') 64bit
Writing library : libebml v1.3.3 + v1.4.4

Video
ID : 1
Format : AVC
Format/Info : Advanced Video Codec
Format profile : [email protected]
Format settings, CABAC : Yes
Format settings, RefFrames : 8 frames
Codec ID : V_MPEG4/ISO/AVC
Duration : 1 h 32 min
Bit rate : 1 427 kb/s
Width : 704 pixels
Height : 480 pixels
Display aspect ratio : 4:3
Original display aspect ratio : 4:3
Frame rate mode : Constant
Frame rate : 29.970 (30000/1001) FPS
Original frame rate : 29.970 (29970/1000) FPS
Standard : NTSC
Color space : YUV
Chroma subsampling : 4:2:0
Bit depth : 8 bits
Scan type : Progressive
Bits/(Pixel*Frame) : 0.141
Stream size : 947 MiB (79%)
Writing library : core 146 r2538 121396c
Encoding settings : cabac=1 / ref=8 / deblock=1:-1:-1 / analyse=0x3:0x113 / me=umh / subme=8 / psy=1 / psy_rd=1.00:0.15 / mixed_ref=1 / me_range=16 / chroma_me=1 / trellis=1 / 8x8dct=1 / cqm=0 / deadzone=21,11 / fast_pskip=1 / chroma_qp_offset=-3 / threads=3 / lookahead_threads=1 / sliced_threads=0 / nr=0 / decimate=1 / interlaced=0 / bluray_compat=0 / constrained_intra=0 / bframes=4 / b_pyramid=2 / b_adapt=2 / b_bias=0 / direct=3 / weightb=1 / open_gop=0 / weightp=2 / keyint=250 / keyint_min=25 / scenecut=40 / intra_refresh=0 / rc_lookahead=50 / rc=crf / mbtree=1 / crf=19.0 / qcomp=0.60 / qpmin=0 / qpmax=69 / qpstep=4 / vbv_maxrate=14000 / vbv_bufsize=14000 / crf_max=0.0 / nal_hrd=none / filler=0 / ip_ratio=1.40 / aq=1:1.00
Language : English
Default : Yes
Forced : No

Audio #1
ID : 2
Format : AC-3
Format/Info : Audio Coding 3
Format settings, Endianness : Big
Codec ID : A_AC3
Duration : 1 h 32 min
Bit rate mode : Constant
Bit rate : 192 kb/s
Channel(s) : 2 channels
Channel positions : Front: L R
Sampling rate : 48.0 kHz
Frame rate : 31.250 FPS (1536 SPF)
Bit depth : 16 bits
Compression mode : Lossy
Stream size : 127 MiB (11%)
Title : 1+1
Language : Ukrainian
Service kind : Complete Main
Default : Yes
Forced : Yes

Audio #2
ID : 3
Format : AC-3
Format/Info : Audio Coding 3
Format settings, Endianness : Big
Codec ID : A_AC3
Duration : 1 h 32 min
Bit rate mode : Constant
Bit rate : 192 kb/s
Channel(s) : 2 channels
Channel positions : Front: L R
Sampling rate : 48.0 kHz
Frame rate : 31.250 FPS (1536 SPF)
Bit depth : 16 bits
Compression mode : Lossy
Stream size : 127 MiB (11%)
Title : Original
Language : English
Service kind : Complete Main
Default : No
Forced : No

Menu
00:00:00.000 : en:Chapter 1
00:05:16.067 : en:Chapter 2
00:13:39.935 : en:Chapter 3
00:27:38.202 : en:Chapter 4
00:36:40.402 : en:Chapter 5
00:49:16.569 : en:Chapter 6
01:00:21.203 : en:Chapter 7
01:11:51.203 : en:Chapter 8
01:23:34.570 : en:Chapter 9
01:31:23.670 : en:Chapter 10
Альтернативне озвучення К1
1. Сезон - https://toloka.to/t85649
2. Сезон - https://toloka.to/t86312
3. Сезон - https://toloka.to/t87831
4. Сезон - https://toloka.to/t87870
Подяки: ka81, olgaya, mintay, EvGaS
Джерело:
Особиста оцінка: 8 - мені сподобалося


Срібний реліз (на рейтинг впливає 50% завантаженого)
 Трекер:    Зареєстрований   

Завантажити / скачати серіал українською



відео для новачків



 Зареєстрований:   2018-04-16 17:40
 Розмір:   16.15 GB 
 Оцінка серіалу:   10/10 (Голосів: 15)
   
Electroz 
Відео Гуртом - підтримка та поширення
Відео Гуртом - підтримка та поширення


З нами з: 18.09.14
Востаннє: 15.11.18
Повідомлень: 3111

2018-04-16 17:42  
Чому не додали озвучення від K1?
Anonymous 







2018-04-16 17:44  
Electroz написано:
Чому не додали озвучення від K1?

Там здається ТТП, тож ну його.
Та й там тільки 4 сезони, додам в опис зараз, як альтернативу, кому буде цікаво подивитися.

qwasasqw 
Поважний учасник


З нами з: 01.01.11
Востаннє: 15.11.18
Повідомлень: 150

2018-04-16 20:29  
Electroz
Те озвучення і десятої частини не варте класики від 1+1)

vigilante 
Новенький


З нами з: 05.02.13
Востаннє: 29.10.18
Повідомлень: 12

2018-05-14 09:16  
от якби всі сезони так збацав,будемо надіятись колись хтось та зробить
Anonymous 







2018-05-14 14:04  
vigilante написано:
от якби всі сезони так збацав

З часом зроблю
Зараз робиться 2й

qwasasqw 
Поважний учасник


З нами з: 01.01.11
Востаннє: 15.11.18
Повідомлень: 150

2018-05-14 21:40  
vigilante написано:
от якби всі сезони так

з озвученням 1+1 доступно зараз тільки 8 сезонів(які на мою думку найкращі, бо без волшів далі вже не те)....1+1 в 2009 році перервав показ на початку 9-го..

O-King 
Частий відвідувач


З нами з: 28.08.13
Востаннє: 12.11.18
Повідомлень: 46

2018-06-28 23:44  
1+1 це добре
maestrо1997 
Новенький


З нами з: 06.12.13
Востаннє: 08.11.18
Повідомлень: 8

2018-09-22 19:08  
Народ, хто обізнаний , може підскажете, як гадаєте: ці фільми, серіали , озвучені телеканалами десь зберігаються в офіційних архівах? чи буде шанс через років 20 придбати цей же Беверлі -Хіллз з якогось офіційного джерела? дуже хвилює це питання, так як дуже багато кіно, яке не хочеться втратити)
Anonymous 







2018-09-22 19:11  
maestrо1997
99,9% що ні. Хіба, що будет десь у онлайн кінотеатрах типу Мегого.

qwasasqw 
Поважний учасник


З нами з: 01.01.11
Востаннє: 15.11.18
Повідомлень: 150

2018-09-23 12:53  
Будь ласка, хто завантажив - не втікайте з сідування. Інколи важко через територіальне місцезнаходження підключити зйомний диск, з серіалом...також диски можуть ламатися і форматуватись через певні причини.
maestrо1997 
Новенький


З нами з: 06.12.13
Востаннє: 08.11.18
Повідомлень: 8

2018-09-24 15:36  
Шановний автор релізу, в 3ій серії відсутня англійська доріжка. Якщо є бажання, можете виправити, я маю окремо доріжку. Хто хоче, може завантажити її окремо і вставити в відео за допомогою програми avidemux ,наприклад. Але я не знаю, чи зможе він потім приєднатися до роздачі, якщо автор також виправть це.
виклав на РГхост. Ось айді файлу

7fBctYGtZ

Anonymous 







2018-09-24 16:17  
maestrо1997 написано:
в 3ій серії відсутня англійська доріжка

усе на місці! перевіряйте плеєр чи апаратуру на якій дивитися.

maestrо1997 
Новенький


З нами з: 06.12.13
Востаннє: 08.11.18
Повідомлень: 8

2018-09-24 18:26  
Anonymous
Вона то є, але там тиша, спочатку якесь базікання пару секунд. Переключіться на неї, в декількох місця. Або там помилка, або мені прийшов час "перестановити шиндоус"

Anonymous 







2018-10-04 16:48  
maestrо1997
Ваша правда, вибачайте, але заради англ доріжки вже не буду оновлювати реліз.

Ваш часовий пояс: GMT + 2 Години

Нова тема   Відповісти