Дівчачий Табір | Yuru Camp | ゆるキャン△ (12 з 12) (2018) 720p Jap | sub Ukr

Нові коментарі

Нова тема   Відповісти
Автор Повідомлення
bodja2 
Новенький


З нами з: 19.05.13
Востаннє: 08.07.18
Повідомлень: 17

2018-04-16 15:59  
Дівчачий Табір | Yuru Camp | Laid-Back Camp | ゆるキャン△ (12 з 12) (2018) 720p Jap | sub Ukr

Дівчачий Табір | Yuru Camp | ゆるキャン△ (12 з 12) (2018) 720p Jap | sub Ukr

Країна: Японія
Рік: 2018
Студія: C-Station
Режисер: Кьоґоку Йошіакі
Жанри: Буденність, Комедія, Школа
Тип: серіал 8.00 (377 голосів)
Джерело: ,
Переклад: K0wbassa

Опис:
Рін, дівчина, яка любить ходити в походи на самоті довкола гори Фуджі. Надешіко, приїхала велосипедом побачити пейзаж гори Фуджі з купюри в 1000 єн але заснула, і її виручила Рін. Спільне милування краєвидом за чашкою мівінки(локшини з карі) ознаменувало початок нової дружби та пригод...

Відео:
Тривалість: 1 серія: ~ 24:00 (цілком серій: 12)
Якість: 720p
Відео:
Кодек:
Розмір кадру:1280х720
Бітрейт: 1776 Кбіт/с

Аудіо:
мова: японська
Переклад: оригінал
Кодек:
канали: 2 (стерео)
бітрейт: 128 Кбіт/сек

Субтитри: (авторський переклад)
мова: українська
Тип: вбудовані (м'які)
Формат: .
Список серій:
1. Гора Фуджі та локшина з карі
2. Ласкаво просимо до Клубу Відпочинку на Свіжому Повітрі!
3. Фуджі та відпочинок у таборі з набе
4. Клуб відпочинку на свіжому повітрі та поїздка на самоті
5. Два табори, два пейзажі
6. М'ясо та осінні барви і таємниче озеро
7. Ніч біля озера та туристи
8. Іспити, Карибу, Булочки, Ням!
9. Ніч Штурмана Надешіко та гарячі джерела в парі
10. Горе мандрівники та підготовка до подорожі
11. Різдвяний Табір
12. Фуджі та розслаблені мандрівниці
Скріншоти


Info

Format :
Format version : Version 4 / Version 2
File size : 322 MiB
Duration : 23 min 40 s
Overall bit rate : 1 902 kb/s
Encoded date : UTC 2018-02-10 19:04:57
Writing application : v11.0.0 ('Alive') 64bit
Writing library : libebml v1.3.4 + v1.4.5
Attachments : OpenSans-Semibold.ttf

Video
ID : 2
Format : AVC
Format/Info : Advanced Video Codec
Format profile : [email protected]
Format settings, CABAC : Yes
Format settings, ReFrames : 6 frames
Codec ID : V_MPEG4/ISO/AVC
Duration : 23 min 40 s
Bit rate : 1 776 kb/s
Width : 1 280 pixels
Height : 720 pixels
Display aspect ratio : 16:9
Frame rate mode : Variable
Frame rate : 23.976 (23976/1000) FPS
Color space : YUV
Chroma subsampling : 4:2:0
Bit depth : 8 bits
Scan type : Progressive
Bits/(Pixel*Frame) : 0.080
Stream size : 300 MiB (93%)
Writing library : core 120 r2120 0c7dab9
Encoding settings : cabac=1 / ref=6 / deblock=1:1:1 / analyse=0x3:0x113 / me=umh / subme=8 / psy=1 / psy_rd=0.40:0.00 / mixed_ref=1 / me_range=16 / chroma_me=1 / trellis=1 / 8x8dct=1 / cqm=0 / deadzone=21,11 / fast_pskip=1 / chroma_qp_offset=-2 / threads=4 / sliced_threads=0 / nr=0 / decimate=1 / interlaced=0 / bluray_compat=0 / constrained_intra=0 / bframes=3 / b_pyramid=2 / b_adapt=2 / b_bias=0 / direct=3 / weightb=1 / open_gop=0 / weightp=2 / keyint=250 / keyint_min=23 / scenecut=40 / intra_refresh=0 / rc_lookahead=50 / rc=2pass / mbtree=1 / bitrate=1776 / ratetol=1.0 / qcomp=0.60 / qpmin=0 / qpmax=69 / qpstep=4 / cplxblur=20.0 / qblur=0.5 / vbv_maxrate=3552 / vbv_bufsize=8880 / nal_hrd=none / ip_ratio=1.40 / aq=1:0.60
Default : Yes
Forced : No

Audio
ID : 3
Format :
Format/Info : Advanced Audio Codec
Format profile : LC
Codec ID : A_AAC
Duration : 23 min 40 s
Bit rate : 128 kb/s
Channel(s) : 2 channels
Channel positions : Front: L R
Sampling rate : 44.1 kHz
Frame rate : 43.066 FPS (1024 spf)
Compression mode : Lossy
Stream size : 21.7 MiB (7%)
Language : Japanese
Default : Yes
Forced : No

Text
ID : 1
Format :
Codec ID : S_TEXT/
Codec ID/Info : Advanced Sub Station Alpha
Duration : 23 min 37 s
Bit rate : 108 b/s
Count of elements : 242
Compression mode : Lossless
Stream size : 18.8 KiB (0%)
Language : Ukrainian
Default : Yes
Forced : Yes


Золотий реліз (завантажене не впливає на рейтинг)
 Трекер:    Зареєстрований   

Завантажити / скачати аніме українською



відео для новачків



 Зареєстрований:   2018-04-16 22:22
 Розмір:   3.78 GB 
 Оцінка аніме:   9.7/10 (Голосів: 3)
   
Gedet 
Відео Гуртом - субтитрування
Відео Гуртом - субтитрування


З нами з: 17.11.11
Востаннє: 25.06.18
Повідомлень: 1784

2018-04-16 16:48  
"мівінки" - це прихована реклама? Happy
EvGaS 
Відео Гуртом - субтитрування
Відео Гуртом - субтитрування


З нами з: 27.02.12
Востаннє: 18.07.18
Повідомлень: 4870

2018-04-16 17:18  
Gedet написано:
"мівінки" - це прихована реклама? Happy

Ба ні, це старий бородатий прикол перекладів. Вже й не згадаю де був уперше.
Аби було рекламою, то там мав би бути хоча б якийсь конкурент.

Додано через 1 хвилину 57 секунд:

Gedet, як жарт приїсться, то знов повернуться усі до класичної підошви черевика.

Gedet 
Відео Гуртом - субтитрування
Відео Гуртом - субтитрування


З нами з: 17.11.11
Востаннє: 25.06.18
Повідомлень: 1784

2018-04-16 21:31  
Я нічого не втямив із написаного вами, вибачайте. Wink (1)
bodja2 
Новенький


З нами з: 19.05.13
Востаннє: 08.07.18
Повідомлень: 17

2018-04-16 23:36  
Додано 10 серію!!!
Яку проворонив раніше...[i]

Додано через 4 хвилини 1 секунду:

Додано через 1 годину 8 хвилин 11 секунд:

Gedet
Тихіше. Не пали контору...

ImfromUkraine 
VIP


З нами з: 18.02.12
Востаннє: 16.07.18
Повідомлень: 325

2018-04-18 23:03  
знову у мене проблема зi завантаженням. чи ще десь викладений релiз?
bodja2 
Новенький


З нами з: 19.05.13
Востаннє: 08.07.18
Повідомлень: 17

2018-04-21 20:57  
ImfromUkraine
Ще його викладено в телеграм.

Додано через 19 хвилин 49 секунд:

ось тут https://t.me/k0wbassa

ImfromUkraine 
VIP


З нами з: 18.02.12
Востаннє: 16.07.18
Повідомлень: 325

2018-04-21 23:38  
bodja2
дякую)

EvGaS 
Відео Гуртом - субтитрування
Відео Гуртом - субтитрування


З нами з: 27.02.12
Востаннє: 18.07.18
Повідомлень: 4870

2018-05-18 04:40  
Ну що… подививсь і навіть сподобалось. Така собі спокійна, тиха річ, схожа на Лог до Йокогами.
Сама по собі не має якоїсь гарної мальовки чи музики, ба навіть озвучення так собі — ну дуже бюджетний мультсеріал, де більш бюджету пішло на походний відпочинок авторів, з якого вони давали усілякі шкідливі поради. Частково чезез це, частково через те, що його таке все ж варто дивитися в українському озвученні (оригінал та титри дещо слабкі) — наврядчи мені схочеться його колись передивитись. Все ж воно не є якимось вже надто класним, бюджетність тут дається взнаки в усьому. Не те, аби було неможливо створювати якісь бюджетні шедеври, просто сценариста тут винайняли настільки ж бюджетного, як й усе інше. Тож якщо матимете бажання подивитись щось розтягнене та спокійне, коли передивилися цей мультсеріал, то вже краще Нотатки про подорож до Йокогами за покупками, Girls` Last Tour (українізація до нього теж є, але геть кепська), ну й ще велику та відому у світі серію утопій Aria: http://anidb.net/a2659 http://anidb.net/a4243 http://anidb.net/a5115 http://anidb.net/a5424 http://anidb.net/a11059
Ну або ж постапокаліптичної е-м-м, мабуть що саркастичної антиутопії Humanity Has Declined http://anidb.net/a8276
Принаймні, воно усе має ну дуже розмірений темп, і все ж якісніш за Табора.

Ваш часовий пояс: GMT + 2 Години

Нова тема   Відповісти