Чого хоче дівчина / What a Girl Wants (2003) 1080p [Open Matte] Ukr/Eng | Sub Eng

Нові коментарі

Нова тема   Відповісти
Автор Повідомлення
Anonymous 







2018-04-15 16:25  
Чого хоче дівчина / What a Girl Wants (2003) 1080p [Open Matte] Ukr/Eng | Sub Eng

Чого хоче дівчина / What a Girl Wants (2003) 1080p [Open Matte] Ukr/Eng | Sub Eng


Інший постер
Чого хоче дівчина / What a Girl Wants (2003) 1080p [Open Matte] Ukr/Eng | Sub Eng
Жанр: комедія, драма, сімейний, романтичний
Країна: США



Кінокомпанія: Warner Bros., Gaylord Films, DiNovi Pictures
Режисер: Дені Гордон
Актори: Аманда Байнс, Колін Ферт (Colin Firth), Келлі Престон, Олівер Джеймс, Анна Ченселор, Ейлін Аткінс.

Сюжет:
Дафна, сімнадцятирічна, вільна дівчина, від'їжджає з Нью-Йорку до Англії на пошук свого батька, якого вона ніколи не бачила. Та виявляється, що тато насправді є світським аристократом та відомим політиком.
Тож тепер Дафна має стати своєю у великосвітському оточенні батька, занурившись з головою в нескінченну чергу богемних прийомів, модних показів та вечірок. Але солодке життя затьмарюється низкою перепон. Дафна має оволодіти тонкощами етикету, налагодити стосунки зі зведеною сестрою і, найголовніше, залишитись вірною своїм ідеалам.
І вона блискуче порається з поставленою метою зі спритністю та винахідливістю, яким би позаздрила перша-ліпша юна леді.


Тривалість: 01:44:56
Якість: 1080p [Open Matte] [Amazon Video]
Відео:
кодек:
розмір кадру: 1920 х 1080
бітрейт: 13.6 Мб/с

Аудіо # 1:
мова: українська
переклад: багатоголосий закадровий
кодек: 2.0
бітрейт: 192 кб/с

Аудіо # 2: (DVD)
мова: англійська
переклад: оригінал
кодек: 5.1
бітрейт: 384 кб/с

Аудіо # 3: (Amazon Video)
мова: англійська
переклад: оригінал
кодек: 2.0
бітрейт: 224 кб/с

Джерело озвучення:


Субтитри:
мова: англійська
тип: програмні (м'які)
формат: *.srt
Info

General
Unique ID : 99322194146734182663706095720092981364 (0x4AB8C23FBAE65234360F499C354CD874)
Format :
Format version : Version 4 / Version 2
File size : 10.5 GiB
Duration : 1 h 44 min
Overall bit rate mode : Variable
Overall bit rate : 14.4 Mb/s
Movie name : Чого хоче дівчина / What a Girl Wants (2003) [Open Matte] [Amazon] 1080p [Ukr.Eng Sub.Eng] [Hurtom]
Encoded date : UTC 2018-04-17 16:50:29
Writing application : mkvmerge v21.0.0 ('Tardigrades Will Inherit The Earth') 64-bit
Writing library : libebml v1.3.5 + libmatroska v1.4.8
Cover : Yes
Attachments : Cover.jpg

Video
ID : 1
Format : AVC
Format/Info : Advanced Video Codec
Format profile : [email protected]
Format settings : CABAC / 4 Ref Frames
Format settings, CABAC : Yes
Format settings, RefFrames : 4 frames
Codec ID : V_MPEG4/ISO/AVC
Duration : 1 h 44 min
Bit rate mode : Variable
Bit rate : 13.6 Mb/s
Maximum bit rate : 15.0 Mb/s
Width : 1 920 pixels
Height : 1 080 pixels
Display aspect ratio : 16:9
Frame rate mode : Constant
Frame rate : 23.976 (24000/1001) FPS
Color space : YUV
Chroma subsampling : 4:2:0
Bit depth : 8 bits
Scan type : Progressive
Bits/(Pixel*Frame) : 0.273
Stream size : 9.93 GiB (94%)
Title : What a Girl Wants (2003) [Open Matte] [Amazon] 1080p [Ukr.Eng Sub.Eng] [Hurtom]
Writing library : core 148 r2623 d5b2374
Encoding settings : cabac=1 / ref=4 / deblock=1:-1:-1 / analyse=0x3:0x133 / me=umh / subme=9 / psy=1 / psy_rd=1.00:0.15 / mixed_ref=1 / me_range=24 / chroma_me=1 / trellis=2 / 8x8dct=1 / cqm=0 / deadzone=21,11 / fast_pskip=1 / chroma_qp_offset=-3 / threads=34 / lookahead_threads=5 / sliced_threads=0 / nr=150 / decimate=1 / interlaced=0 / bluray_compat=0 / constrained_intra=0 / bframes=8 / b_pyramid=2 / b_adapt=2 / b_bias=0 / direct=3 / weightb=1 / open_gop=0 / weightp=2 / keyint=120 / keyint_min=61 / scenecut=0 / intra_refresh=0 / rc_lookahead=120 / rc=crf / mbtree=1 / crf=18.0 / qcomp=0.60 / qpmin=0 / qpmax=69 / qpstep=4 / vbv_maxrate=15000 / vbv_bufsize=31250 / crf_max=0.0 / nal_hrd=vbr / filler=0 / ip_ratio=1.40 / aq=3:1.00
Language : English
Default : Yes
Forced : No
Color range : Limited
Color primaries : BT.709
Transfer characteristics : BT.709
Matrix coefficients : BT.709

Audio #1
ID : 2
Format : AC-3
Format/Info : Audio Coding 3
Codec ID : A_AC3
Duration : 1 h 44 min
Bit rate mode : Constant
Bit rate : 192 kb/s
Channel(s) : 2 channels
Channel positions : Front: L R
Sampling rate : 48.0 kHz
Frame rate : 31.250 FPS (1536 SPF)
Bit depth : 16 bits
Compression mode : Lossy
Stream size : 144 MiB (1%)
Title : MVO | Novy Kanal | 2.0 | 192 kbps
Language : Ukrainian
Service kind : Complete Main
Default : Yes
Forced : No

Audio #2
ID : 3
Format : AC-3
Format/Info : Audio Coding 3
Codec ID : A_AC3
Duration : 1 h 44 min
Bit rate mode : Constant
Bit rate : 384 kb/s
Channel(s) : 6 channels
Channel positions : Front: L C R, Side: L R, LFE
Sampling rate : 48.0 kHz
Frame rate : 31.250 FPS (1536 SPF)
Bit depth : 16 bits
Compression mode : Lossy
Stream size : 288 MiB (3%)
Title : Original (DVD)
Language : English
Service kind : Complete Main
Default : No
Forced : No

Audio #3
ID : 4
Format : AC-3
Format/Info : Audio Coding 3
Codec ID : A_AC3
Duration : 1 h 44 min
Bit rate mode : Constant
Bit rate : 224 kb/s
Channel(s) : 2 channels
Channel positions : Front: L R
Sampling rate : 48.0 kHz
Frame rate : 31.250 FPS (1536 SPF)
Bit depth : 16 bits
Compression mode : Lossy
Stream size : 168 MiB (2%)
Title : Original (Amazon)
Language : English
Service kind : Complete Main
Default : No
Forced : No

Text
ID : 5
Format : UTF-8
Codec ID : S_TEXT/UTF8
Codec ID/Info : UTF-8 Plain Text
Duration : 1 h 44 min
Bit rate : 70 b/s
Count of elements : 1830
Stream size : 53.8 KiB (0%)
Title : Original
Language : English
Default : No
Forced : No

Menu
00:00:00.000 : en:Studio Logos
00:00:38.000 : en:Opening Credits, Daphne Narrates Her Story; Various Locations
00:02:11.000 : en:Libby Tells Daphne about Her Dad; Daphne's House
00:04:45.000 : en:Daphne & Her Mom Work Together; Banquet Hall
00:08:47.000 : en:Daphne Feels Lonely Without Her Father; Banquet Hall
00:10:17.000 : en:Daphne Leaves to Find Her Father; House & Taxi
00:11:37.000 : en:Daphne Arrives in London; Great Britain Grand Hotel
00:14:34.000 : en:Alistair & Henry Discuss Henry's Election Speech; Dashwood Mansion
00:15:48.000 : en:Daphne Meets Ian; Street
00:16:29.000 : en:Daphne Tries to Enter the Dashwood Mansion; Dashwood Mansion
00:19:46.000 : en:Daphne Meets Henry; Dashwood Mansion
00:23:01.000 : en:Henry Is Shocked to Find He Has a Daughter; Dashwood Mansion
00:24:56.000 : en:Henry Talks to Libby about Daphne; Dashwood Mansion
00:26:11.000 : en:Henry Believes Daphne Is a Mature Young Lady; Conference Room
00:27:39.000 : en:Henry Invites Daphne to the Royal Dress Show; Dashwood Mansion
00:30:53.000 : en:Daphne Has a Mishap in the Bathroom; Dashwood Mansion
00:33:30.000 : en:Daphne Surprises Everyone; Royal Dress Show
00:36:11.000 : en:Daphne Plays With Princess Charlotte's Dog; Royal Dress Show
00:37:38.000 : en:Henry Talks to Daphne; Dashwood Mansion
00:40:57.000 : en:Clarissa Gets Jealous of Daphne; Dashwood Mansion
00:44:04.000 : en:Daphne Gets Attention at Lord Orwood's Party; Lord Orwood's Mansion
00:47:12.000 : en:Daphne Dances With Armistead; Lord Orwood's Mansion
00:49:28.000 : en:Daphne & Ian Get the Party Going; Lord Orwood's Mansion
00:52:40.000 : en:Henry Looks At Daphne's Childhood Photos; Dashwood Mansion
00:54:21.000 : en:Daphne Apologizes to Henry; Dashwood Mansion
00:56:23.000 : en:Daphne Goes Out With Ian; Dashwood Mansion
00:57:49.000 : en:Daphne Goes Shopping with Ian; Market
00:59:21.000 : en:Daphne & Ian Go Boating; Boat
01:01:45.000 : en:Henry Worries About Daphne; Dashwood Mansion
01:03:10.000 : en:Henry & Daphne Address the Media; Henley Regatta
01:05:02.000 : en:Daphne Makes Another Splash; Henley Regatta
01:08:05.000 : en:Daphne Spends the Day With Henry; Various Locations
01:11:57.000 : en:Henry Is on the Verge of Losing His Position; Dashwood Office
01:12:47.000 : en:Daphne Undergoes a Transformation for Henry; Dashwood Mansion
01:16:45.000 : en:Daphne Goes To the Annual Garden Party; Garden
01:17:37.000 : en:Henry Introduces Daphne to Society; Dashwood Mansion
01:20:34.000 : en:Henry & Libby Dance; Dashwood Mansion
01:24:27.000 : en:Daphne Leaves the Party; Dashwood Mansion
01:26:27.000 : en:Daphne Tells Henry How She Feels; Dashwood Mansion
01:28:23.000 : en:Daphne Misses Henry & Ian; Dashwood Mansion
01:31:33.000 : en:Henry Speaks at a Press Conference; Hall
01:35:03.000 : en:Henry Surprises Daphne; Lawn
01:39:49.000 : en:Daphne Lives Happily Ever After; Various Locations
01:41:05.000 : en:End Credits
Скріншоти











DVD vs HDTV vs

- What a Girl Wants (2003) DVD - Обрізано зверху та в низу.

- What a Girl Wants (2003) HDTV 1080i - Присутня на горі чорна смужка протягом всього фільму.

- What a Girl Wants (2003) 1080p [Open Matte] - Відсутня чорна смужка.

Джерело: &
За опис та доріжку дякую пану (Доріжка з його релізу) patriot2305
За запис звуку з ТБ дякую пану xslim
Особиста оцінка: 10 - без зайвих вагань рекомендую всім!


Срібний реліз (на рейтинг впливає 50% завантаженого)
 Трекер:    Зареєстрований   

Завантажити / скачати фільм українською



відео для новачків



 Зареєстрований:   2018-04-17 21:03
 Розмір:   10.52 GB 
 Оцінка фільму:   7.8/10 (Голосів: 4)
   
Інші релізи
   Чого хоче дівчина / What a Girl Wants (2003) patriot2305  2 / 0   1.61 GB   2013-06-27 23:13 
bot 
робот


З нами з: 30.09.07
Востаннє: 26.05.05
Повідомлень: 18699

2018-04-17 21:03  
Тему перенесено з Анонси релізів до форуму Фільми в HD


Pegass

igor911 
Відео Гуртом
Відео Гуртом


З нами з: 18.01.08
Востаннє: 19.04.18
Повідомлень: 9801

2018-04-17 23:20  
Anonymous написано:
Присутня на горі чорна смужка / відсутня чорна смужка

то чому було не оновити свій попередній реліз з тією смужкою, квадратами та милом? тепер буде розпорошено по кілька сідів там і тут...

Додано через 4 хвилини 40 секунд:

по скріну тепер якість краща, ніж в хдтв, але всерівно далека від fullhd (та й на hd не дотягує).

omm 
Відео Гуртом - фільмокрай
Відео Гуртом - фільмокрай


З нами з: 12.06.12
Востаннє: 19.04.18
Повідомлень: 2225

2018-04-18 10:12  
Непогане молодіжне розважальне кіно. 7 з 10
Open Matte - сила.

Ваш часовий пояс: GMT + 2 Години

Нова тема   Відповісти