Тернер і Гуч / Turner & Hooch (1989) 1080p 2xUkr/Eng | Sub Eng

Нові коментарі

Нова тема   Відповісти
Автор Повідомлення
boroznaya 
Попереджень: 1
Попереджень: 1 


З нами з: 02.11.12
Востаннє: 11.12.19
Повідомлень: 2943

2018-04-15 12:19  
Тернер і Гуч / Turner & Hooch (1989) 1080p 2xUkr/Eng | Sub Eng

Тернер і Гуч / Turner & Hooch (1989) 1080p 2xUkr/Eng | Sub Eng


Жанр: комедія, драма, кримінал
Країна: США



Кінокомпанія: Silver Screen Partners IV, Touchstone Pictures
Режисер: Роджер Споттісвуд
Актори: Том Генкс, Мер Віннінґем, Крейґ Нельсон, Реджінальд ВелДжонсон, Скотт Полін

Сюжет:
У детектива Тернера кожна річ має лежати на своєму місці. Усе його життя заздалегідь сплановане і передбачуване. Одного разу йому випадає місія доглядати за єдиним свідком вбивства - здоровенним мастифом - невихованою, злобною і абсолютно не тренованою псиною на прізвисько Гуч.
З цього моменту раціонально побудований світ Тернера просто розпадається на очах, цеглинка за цеглинкою. Гуч - дивовижна собака. Ця собака не друг людини, а справжнісінька кара. Коли Тернер зрозумів, кого впустив у свій будинок, було вже пізно. Галасливі сварки ні до чого путнього не привели. Можливо, найкращий спосіб здолати ворога, це потоваришувати із ним.


Тривалість: 01:39:41
Якість: 1080p
Відео:
кодек:
розмір кадру: 1920x1040
бітрейт: 10,6 Мб/с

Аудіо # 1:
мова: українська
переклад: двоголосий закадровий
кодек: 2.0
бітрейт: 192 кб/с

Аудіо # 2:,
мова: українська
переклад: двоголосий закадровий
кодек: 2.0
бітрейт: 192 кб/с

Аудіо # 3:
мова: англійська
переклад: оригінал
кодек: 5.1
бітрейт: 1510 кб/с

Субтитри:
мова: англійська
тип: програмні (м'які)
формат: *.srt
Info
General
Unique ID : 288410295385369466158948496648272011789 (0xD8F9CD6B158D90E0C01BF8CF66DEE20D)
Complete name : D:\Готові релізи!\Turner & Hooch (1989) [2xUkr, Eng, sub. Eng] 1080p [Hurtom].
Format :
Format version : Version 4 / Version 2
File size : 8.69 GiB
Duration : 1h 39mn
Overall bit rate : 12.5 Mbps
Movie name : CMEGRoup
Encoded date : UTC 2018-04-15 06:47:01
Writing application : v20.0.0 ('I Am The Sun') 64-bit
Writing library : libebml v1.3.5 + v1.4.8
DURATION : 01:39:41.056000000
NUMBER_OF_FRAMES : 186908
NUMBER_OF_BYTES : 143545344
_STATISTICS_WRITING_APP : v20.0.0 ('I Am The Sun') 64-bit
_STATISTICS_WRITING_DATE_UTC : 2018-04-15 06:47:01
_STATISTICS_TAGS : BPS DURATION NUMBER_OF_FRAMES NUMBER_OF_BYTES

Video #1
ID : 1
Format : AVC
Format/Info : Advanced Video Codec
Format profile : [email protected]
Format settings, CABAC : Yes
Format settings, ReFrames : 4 frames
Codec ID : V_MPEG4/ISO/AVC
Duration : 1h 39mn
Bit rate : 10.6 Mbps
Width : 1 920 pixels
Height : 1 040 pixels
Display aspect ratio : 16:9
Frame rate : 23.976 fps
Color space : YUV
Chroma subsampling : 4:2:0
Bit depth : 8 bits
Scan type : Progressive
Bits/(Pixel*Frame) : 0.221
Stream size : 7.20 GiB (83%)
Title : Zhuk_Mikola
Writing library : core 130 r2273 b3065e6
Encoding settings : cabac=1 / ref=4 / deblock=1:-3:-3 / analyse=0x3:0x113 / me=umh / subme=10 / psy=1 / psy_rd=1.00:0.00 / mixed_ref=1 / me_range=32 / chroma_me=1 / trellis=2 / 8x8dct=1 / cqm=0 / deadzone=21,11 / fast_pskip=1 / chroma_qp_offset=-2 / threads=6 / lookahead_threads=1 / sliced_threads=0 / nr=0 / decimate=1 / interlaced=0 / bluray_compat=0 / constrained_intra=0 / bframes=5 / b_pyramid=2 / b_adapt=2 / b_bias=0 / direct=2 / weightb=0 / open_gop=0 / weightp=2 / keyint=240 / keyint_min=23 / scenecut=40 / intra_refresh=0 / rc_lookahead=40 / rc=2pass / mbtree=1 / bitrate=10600 / ratetol=1.0 / qcomp=0.60 / qpmin=0 / qpmax=69 / qpstep=4 / cplxblur=20.0 / qblur=0.5 / vbv_maxrate=62500 / vbv_bufsize=78125 / nal_hrd=none / ip_ratio=1.40 / aq=1:1.00
Language : English
Default : Yes
Forced : No
DURATION : 01:39:31.799000000
NUMBER_OF_FRAMES : 143180
NUMBER_OF_BYTES : 7912444106
_STATISTICS_WRITING_APP : v20.0.0 ('I Am The Sun') 64-bit
_STATISTICS_WRITING_DATE_UTC : 2018-04-15 06:47:01
_STATISTICS_TAGS : BPS DURATION NUMBER_OF_FRAMES NUMBER_OF_BYTES

Audio #2
ID : 2
Format : AC-3
Format/Info : Audio Coding 3
Mode extension : CM (complete main)
Codec ID : A_AC3
Duration : 1h 39mn
Bit rate mode : Constant
Bit rate : 192 Kbps
Channel(s) : 2 channels
Channel positions : Front: L R
Sampling rate : 48.0 KHz
Bit depth : 16 bits
Compression mode : Lossy
Stream size : 137 MiB (2%)
Title : Двоголосий закадровий, 1+1
Language : Ukrainian
Default : Yes
Forced : No

Audio #3
ID : 3
Format : AC-3
Format/Info : Audio Coding 3
Mode extension : CM (complete main)
Codec ID : A_AC3
Duration : 1h 39mn
Bit rate mode : Constant
Bit rate : 192 Kbps
Channel(s) : 2 channels
Channel positions : Front: L R
Sampling rate : 48.0 KHz
Bit depth : 16 bits
Compression mode : Lossy
Stream size : 137 MiB (2%)
Title : Двоголосий закадровий, Новий канал, Інтер
Language : Ukrainian
Default : No
Forced : No

Audio #4
ID : 4
Format :
Format/Info : Digital Theater Systems
Codec ID : A_DTS
Duration : 1h 39mn
Bit rate mode : Constant
Bit rate : 1 510 Kbps
Channel(s) : 6 channels
Channel positions : Front: L C R, Side: L R, LFE
Sampling rate : 48.0 KHz
Bit depth : 24 bits
Compression mode : Lossy
Stream size : 1.05 GiB (12%)
Language : English
Default : No
Forced : No

Text #5
ID : 5
Format : UTF-8
Codec ID : S_TEXT/UTF8
Codec ID/Info : UTF-8 Plain Text
Language : English
Default : No
Forced : No
Скріншоти





За доріжку від 1+1 дякую: robotron005, xslim, karvai0
За запис з Нового дякую Bohdan237
За постер дякую A. Smile

Джерело: &
Особиста оцінка: 8 - мені сподобалося


Срібний реліз (на рейтинг впливає 50% завантаженого)
 Трекер:    Зареєстрований   

Завантажити / скачати фільм українською



відео для новачків



 Зареєстрований:   2018-04-22 07:18
 Розмір:   8.69 GB 
 Оцінка фільму:   8.2/10 (Голосів: 10)
   
Інші релізи
   Тернер і Гуч / Turner & Hooch (1989) AVC 2xUkr/Eng Arsenfpu  4 / 0   2.48 GB   2017-08-31 10:56 
   Тернер і Гуч / Turner & Hooch (1989) 2xUkr/Eng robotron005  4 / 0   1.46 GB   2012-11-14 18:51 
omm 
Відео Гуртом - фільмокрай
Відео Гуртом - фільмокрай


З нами з: 12.06.12
Востаннє: 11.12.19
Повідомлень: 2350

2018-04-18 09:15  
Значно краще за "К-9", як на мене. Більш душевне чи що.
7,5 з 10

bot 
робот


З нами з: 30.09.07
Востаннє: 26.05.05
Повідомлень: 22624

2018-04-22 07:14  
Тему перенесено з Анонси релізів до форуму Фільми в HD


boroznaya

boroznaya 
Попереджень: 1
Попереджень: 1 


З нами з: 02.11.12
Востаннє: 11.12.19
Повідомлень: 2943

2018-04-22 07:21  
Фільм "Тернер і Гуч" на роздачі!
Всім приємного перегляду!

Ваш часовий пояс: GMT + 2 Години

Нова тема   Відповісти