Кокон / Cocoon (1985) 1080p Ukr/Eng | Sub Ukr/Eng

Нові коментарі

Нова тема   Відповісти
немає
Автор Повідомлення
boroznaya 
VIP


З нами з: 02.11.12
Востаннє: 19.04.18
Повідомлень: 2722

2018-04-15 12:54  
Кокон / Cocoon (1985) 1080p Ukr/Eng | Sub Ukr/Eng

Кокон / Cocoon (1985) 1080p Ukr/Eng | Sub Ukr/Eng


Жанр: фантастика, комедія, мелодрама, пригодницький
Країна: США



Кінокомпанія: 20th Century Fox
Режисер: Рон Ховард
Актори: Дон Амічі, Уїлфорд Брімлі, Х'юм Кронін, Брайан Деннехі, Джек Гілфорд, Стів Гуттенберг, Морін Степлтон, Джессіка Тенді, Гвен Вердон, Херта Уер

Сюжет:
Події фільму розгортаються в будинку для літніх людей. Його мешканці дізнаються, якщо скупатися в басейні сусіднього будинку, то починаєш відчувати себе зовсім молодим. Але раптом з'ясовується, що на дні басейну зберігаються чудодійні кокони, підняті з глибин океану, які належать іншопланетянам, котрі колись завітали на Землю, а тепер повернулися. Старенькі забажали омолодитися і вплуталися в захоплюючу, але небезпечну авантюру.


Тривалість: 01:57:10
Якість: 1080p
Відео:
кодек:
розмір кадру: 1918x1040
бітрейт: 10,2 Мб/с

Аудіо # 1:
мова: українська
переклад: двоголосий закадровий
кодек: 5.1
бітрейт: 384 кб/с

Аудіо # 2:
мова: англійська
переклад: оригінал
кодек: 5.1
бітрейт: 640 кб/с

Джерело озвучення:


Субтитри:
мова: українська
тип: програмні (м'які)
формат: *.srt

Субтитри:
мова: англійська
тип: програмні (м'які)
формат: *.srt
Info
D:\Готові релізи!\Cocoon (1985) [Ukr, Eng, sub. Ukr, Eng] 1080p [Hurtom].
General
Unique ID : 203971303149984373976752332298480919094 (0x997371AD78DB60B61002EE2E78622236)
Complete name : D:\Готові релізи!\Cocoon (1985) [Ukr, Eng, sub. Ukr, Eng] 1080p [Hurtom].
Format :
Format version : Version 4 / Version 2
File size : 9.19 GiB
Duration : 1h 57mn
Overall bit rate : 11.2 Mbps
Movie name : = Кокон / Cocoon (1985) 1080p - KORSAR =
Encoded date : UTC 2018-04-15 09:34:12
Writing application : mkvmerge v20.0.0 ('I Am The Sun') 64-bit
Writing library : libebml v1.3.5 + libmatroska v1.4.8
DURATION : 01:57:04.500000000
NUMBER_OF_FRAMES : 913
NUMBER_OF_BYTES : 57035
_STATISTICS_WRITING_APP : mkvmerge v20.0.0 ('I Am The Sun') 64-bit
_STATISTICS_WRITING_DATE_UTC : 2018-04-15 09:34:12
_STATISTICS_TAGS : BPS DURATION NUMBER_OF_FRAMES NUMBER_OF_BYTES
Attachment : Yes

Video #1
ID : 1
Format : AVC
Format/Info : Advanced Video Codec
Format profile : [email protected]
Format settings, CABAC : Yes
Format settings, ReFrames : 4 frames
Codec ID : V_MPEG4/ISO/AVC
Duration : 1h 57mn
Bit rate : 10.2 Mbps
Width : 1 918 pixels
Height : 1 040 pixels
Display aspect ratio : 16:9
Frame rate : 23.976 fps
Color space : YUV
Chroma subsampling : 4:2:0
Bit depth : 8 bits
Scan type : Progressive
Bits/(Pixel*Frame) : 0.213
Stream size : 8.17 GiB (89%)
Title : Zhuk_Mikola
Writing library : core 148 r2744kMod b97ae06
Encoding settings : cabac=1 / ref=4 / deblock=1:-3:-3 / analyse=0x3:0x113 / me=umh / subme=11 / psy=1 / fade_compensate=0.00 / psy_rd=1.00:0.00 / mixed_ref=1 / me_range=32 / chroma_me=1 / trellis=2 / 8x8dct=1 / cqm=0 / deadzone=21,11 / fast_pskip=0 / chroma_qp_offset=-2 / threads=12 / lookahead_threads=3 / sliced_threads=0 / nr=0 / decimate=0 / interlaced=0 / bluray_compat=0 / constrained_intra=0 / bframes=10 / b_pyramid=2 / b_adapt=2 / b_bias=0 / direct=3 / weightb=1 / open_gop=0 / weightp=2 / keyint=240 / keyint_min=23 / scenecut=40 / intra_refresh=0 / rc_lookahead=60 / rc=2pass / mbtree=0 / bitrate=10200 / ratetol=1.0 / qcomp=0.60 / qpmin=0 / qpmax=69 / qpstep=4 / cplxblur=20.0 / qblur=0.5 / vbv_maxrate=50000 / vbv_bufsize=62500 / nal_hrd=none / filler=0 / ip_ratio=1.40 / pb_ratio=1.30 / aq=3:0.90
Language : English
Default : Yes
Forced : No
DURATION : 01:57:10.023000000
NUMBER_OF_FRAMES : 168552
NUMBER_OF_BYTES : 8961741374
_STATISTICS_WRITING_APP : mkvmerge v20.0.0 ('I Am The Sun') 64-bit
_STATISTICS_WRITING_DATE_UTC : 2018-04-15 09:34:12
_STATISTICS_TAGS : BPS DURATION NUMBER_OF_FRAMES NUMBER_OF_BYTES
Color primaries : BT.709-5, BT.1361, IEC 61966-2-4, SMPTE RP177
Transfer characteristics : BT.709-5, BT.1361
Matrix coefficients : BT.709-5, BT.1361, IEC 61966-2-4 709, SMPTE RP177

Audio #2
ID : 2
Format : AC-3
Format/Info : Audio Coding 3
Mode extension : CM (complete main)
Codec ID : A_AC3
Duration : 1h 57mn
Bit rate mode : Constant
Bit rate : 384 Kbps
Channel(s) : 6 channels
Channel positions : Front: L C R, Side: L R, LFE
Sampling rate : 48.0 KHz
Bit depth : 16 bits
Compression mode : Lossy
Stream size : 322 MiB (3%)
Title : Двоголосий закадровий, 1+1
Language : Ukrainian
Default : Yes
Forced : No

Audio #3
ID : 3
Format : AC-3
Format/Info : Audio Coding 3
Mode extension : CM (complete main)
Codec ID : A_AC3
Duration : 1h 57mn
Bit rate mode : Constant
Bit rate : 640 Kbps
Channel(s) : 6 channels
Channel positions : Front: L C R, Side: L R, LFE
Sampling rate : 48.0 KHz
Bit depth : 16 bits
Compression mode : Lossy
Stream size : 536 MiB (6%)
Language : English
Default : No
Forced : No

Text #4
ID : 4
Format : UTF-8
Codec ID : S_TEXT/UTF8
Codec ID/Info : UTF-8 Plain Text
Language : Ukrainian
Default : Yes
Forced : No

Text #5
ID : 5
Format : UTF-8
Codec ID : S_TEXT/UTF8
Codec ID/Info : UTF-8 Plain Text
Language : English
Default : No
Forced : No
Скріншоти





Подяка:
- karvai0 та abodnya за звукозапис з ТБ;
- _oles за синхронізацію аудіодоріжки;
- thefir за українізацію постера.

Джерело: &
Особиста оцінка: 8 - мені сподобалося
bot 
робот


З нами з: 30.09.07
Востаннє: 26.05.05
Повідомлень: 18692

2018-04-15 12:55  
Тему перенесено з Фільми в HD до форуму Анонси релізів


boroznaya
mr. blef 
Новенький


З нами з: 26.02.18
Востаннє: 19.04.18
Повідомлень: 10

2018-04-15 16:58  
Хороший фільм настільки, що хотілось би в колекції мати і його продовження. Від вас чекати, boroznaya?
boroznaya 
VIP


З нами з: 02.11.12
Востаннє: 19.04.18
Повідомлень: 2722

2018-04-15 18:01  
mr. blef, варто ще трохи почекати.
Можливо, з'явиться відеоряд у кращій якості, тоді й викладу.
Ваш часовий пояс: GMT + 2 Години

Нова тема   Відповісти