Формула 1. Сезон 2018. Етап 3. Гран-Прі Китаю. Гонка (15.04.2018) 720p

Нові коментарі

Нова тема   Відповісти
Автор Повідомлення
sergiyko.5 
VIP


З нами з: 25.02.16
Востаннє: 25.10.20
Повідомлень: 3617

2018-04-15 11:37  
Формула 1. Сезон 2018. Етап 3. Гран-Прі Китаю. Гонка (15.04.2018) 720p


Формула 1. Сезон 2018. Етап 3. Гран-Прі Китаю. Гонка (15.04.2018) 720p

Жанр: Перегони Формули 1
Країна: Китай
Телеканал: Перший автомобільний
Коментатор: Максим Подзігун

Опис:
Гонка третьго сезону Гран-Прі Китаю 2018 року відбулась 15 квітня о 09:00 за київським часом.


Тривалість: 02:07:04
Якість:

Відео: кодек: розмір кадру: 1280 х 720 бітрейт: 4600 кб/с
Аудіо: мова: українська кодек: 2.0 бітрейт: 160 кб/с

Дод. інформація: повний запис трансляції гонки, на початку та в середині присутня звукова реклама по півтори хвилини.
Про файл:
General
Unique ID : 198536974275952429043605968925914503255 (0x955CD493F4670745285863F5ADFB1857)
Complete name : D:\Torrents\SPORT\Formula 1\F1.2018.Race\F1.2018.03.Chinese.Race.720p..Ukr.
Format :
Format version : Version 4 / Version 2
File size : 4.21 GiB
Duration : 2 h 7 min
Overall bit rate mode : Variable
Overall bit rate : 4 743 kb/s
Encoded date : UTC 2018-04-15 09:32:12
Writing application : v22.0.0 ('At The End Of The World') 64-bit
Writing library : libebml v1.3.5 + v1.4.8

Video
ID : 1
Format : AVC
Format/Info : Advanced Video Codec
Format profile : [email protected]
Format settings, CABAC : Yes
Format settings, ReFrames : 1 frame
Codec ID : V_MPEG4/ISO/AVC
Duration : 2 h 7 min
Bit rate mode : Variable
Bit rate : 4 579 kb/s
Maximum bit rate : 13.5 Mb/s
Width : 1 280 pixels
Height : 720 pixels
Display aspect ratio : 16:9
Frame rate mode : Constant
Frame rate : 50.000 FPS
Color space : YUV
Chroma subsampling : 4:2:0
Bit depth : 8 bits
Scan type : Progressive
Bits/(Pixel*Frame) : 0.099
Stream size : 4.06 GiB (97%)
Language : English
Default : Yes
Forced : No

Audio
ID : 2
Format :
Format/Info : Advanced Audio Codec
Format profile : LC
Codec ID : A_AAC
Duration : 2 h 7 min
Bit rate : 160 kb/s
Channel(s) : 2 channels
Channel positions : Front: L R
Sampling rate : 48.0 kHz
Frame rate : 46.875 FPS (1024 spf)
Compression mode : Lossy
Delay relative to video : 18 ms
Stream size : 145 MiB (3%)
Title : 1 Авто | Максим Подзігун
Language : Ukrainian
Default : Yes
Forced : No
Скріншоти:


Автор запису: wm.morgun


 Трекер:    Зареєстрований   

Завантажити / скачати торрент



відео для новачків



 Зареєстрований:   2018-04-15 11:37
 Розмір:   4.21 GB 
 Оцінка:   10/10 (Голосів: 16)
   
sergiyko.5 
VIP


З нами з: 25.02.16
Востаннє: 25.10.20
Повідомлень: 3617

2018-04-15 11:59  
В кого є бажання швидше отримати записи, вони є тут: https://fex.net/355217695448
vl80 
Новенький


З нами з: 26.05.13
Востаннє: 09.10.20
Повідомлень: 6

2018-04-15 12:55  
Дякую за запис, але дуже прошу, не беріть більше відеоряд з 1 авто, хай навіть там і написано HD! Зображення в "милі" і з вкрай низьким бітрейтом. Це не проблеми обробки, це "якість" каналу. Не ставив тюнер на запис, чекав вашого релізу, так як думав, буде інший відеоряд Cry (2)
sergiyko.5 
VIP


З нами з: 25.02.16
Востаннє: 25.10.20
Повідомлень: 3617

2018-04-15 13:14  
vl80
Справа в тому, що ці ріпи я отримую готовими і релізю відразу, а з МАТЧ багато роботи, завантажити відео, звести звук, це більше двох годин і результат не завжди гарний, інколи бувають помилки через які я недобре почуваюсь.

Перший варіант простота і швидкість, другий тяжка і нервова праця. Деякі неадекватні користувачі хворо реагують на емблему москанала, бувають інші претензії. Тому вибачте, я вибираю перший варіант.

Додано через 3 хвилини 31 секунду:

vl80 написано:
Не ставив тюнер на запис, чекав вашого релізу, так як думав, буде інший відеоряд

і що це значить, у вас записане відео якісніше за це? Давайте скріншоти і джерело запису у приват, буду перевіряти.

vl80 
Новенький


З нами з: 26.05.13
Востаннє: 09.10.20
Повідомлень: 6

2018-04-15 13:37  
sergiyko.5
Моє відео не якісніше, воно з того ж каналу, а там якості немає взагалі.
Якщо користувачі нервово реагують на МАТЧ, краще брати з польського Eleven 1 - якість чудова, але теж доведеться зводити.

sergiyko.5 
VIP


З нами з: 25.02.16
Востаннє: 25.10.20
Повідомлень: 3617

2018-04-15 13:57  
А де його брати? Який супутник? Інформації про файли з цього каналу я не зустрічав.

Додано через 17 хвилин:

Eleven Sports написано:
Кодований канал

vl80 
Новенький


З нами з: 26.05.13
Востаннє: 09.10.20
Повідомлень: 6

2018-04-15 14:10  
Супутник Hotbird 13e, канал дійсно кодований, входить до пакетів NC+ та Cyfrovy Polsat. Але ж МАТЧ теж кодований, наскільки мені відомо Wink (2) На супутнику 19е мають бути німецькі не кодовані, пізніше уточню назви і координати, якщо потрібно.
sergiyko.5 
VIP


З нами з: 25.02.16
Востаннє: 25.10.20
Повідомлень: 3617

2018-04-15 14:21  
vl80
Так записи МАТЧ я беру в інтернеті, відразу після закінчення трансляції. Так само і стріми з Першого автомобільного.

Umbrella.Corps 
Свій


З нами з: 09.04.17
Востаннє: 24.10.20
Повідомлень: 61

2018-04-16 20:06  
1 автомобільний тоже нормально, вполне можно смотреть.
Ваш часовий пояс: GMT + 2 Години

Нова тема   Відповісти