Формула 1. Сезон 2018. Етап 3. Гран-Прі Китаю. Гонка (15.04.2018) 1080p

Нові коментарі

Нова тема   Відповісти
Останній раз роздавалося VicCob (2020-08-09)
Автор Повідомлення
sergiyko.5 
VIP


З нами з: 25.02.16
Востаннє: 27.10.20
Повідомлень: 3636

2018-04-15 11:09  
Формула 1. Сезон 2018. Етап 3. Гран-Прі Китаю. Гонка (15.04.2018) 1080p


Формула 1. Сезон 2018. Етап 3. Гран-Прі Китаю. Гонка (15.04.2018) 1080p

Жанр: Перегони Формули 1
Країна: Китай
Телеканал: Перший автомобільний
Коментатор: Максим Подзігун

Опис:
Гонка третьго сезону Гран-Прі Китаю 2018 року відбулась 15 квітня о 09:00 за київським часом.


Тривалість: 02:07:04
Якість:

Відео: кодек: розмір кадру: 1920 х 1080 бітрейт: 14000 кб/с
Аудіо: мова: українська кодек: 2.0 бітрейт: 160 кб/с

Дод. інформація: повний запис трансляції гонки, на початку та в середині присутня звукова реклама по півтори хвилини.
Про файл:
General
Unique ID : 110623938796232475033104397988994069775 (0x53396547F77038BE09D2F7F76805B50F)
Complete name : D:\Torrents\SPORT\Formula 1\F1.2018.Race\F1.2018.03.Chinese.Race.1080p..Ukr.
Format :
Format version : Version 4 / Version 2
File size : 12.6 GiB
Duration : 2 h 7 min
Overall bit rate mode : Variable
Overall bit rate : 14.2 Mb/s
Encoded date : UTC 2018-04-15 09:02:06
Writing application : v22.0.0 ('At The End Of The World') 64-bit
Writing library : libebml v1.3.5 + v1.4.8

Video
ID : 1
Format : AVC
Format/Info : Advanced Video Codec
Format profile : [email protected]
Format settings, CABAC : Yes
Format settings, ReFrames : 1 frame
Codec ID : V_MPEG4/ISO/AVC
Duration : 2 h 7 min
Bit rate mode : Variable
Bit rate : 14.0 Mb/s
Maximum bit rate : 40.0 Mb/s
Width : 1 920 pixels
Height : 1 080 pixels
Display aspect ratio : 16:9
Frame rate mode : Constant
Frame rate : 50.000 FPS
Color space : YUV
Chroma subsampling : 4:2:0
Bit depth : 8 bits
Scan type : Progressive
Bits/(Pixel*Frame) : 0.135
Stream size : 12.5 GiB (99%)
Language : English
Default : Yes
Forced : No

Audio
ID : 2
Format :
Format/Info : Advanced Audio Codec
Format profile : LC
Codec ID : A_AAC
Duration : 2 h 7 min
Bit rate : 160 kb/s
Channel(s) : 2 channels
Channel positions : Front: L R
Sampling rate : 48.0 kHz
Frame rate : 46.875 FPS (1024 spf)
Compression mode : Lossy
Delay relative to video : 18 ms
Stream size : 145 MiB (1%)
Title : 1 Авто | Максим Подзігун
Language : Ukrainian
Default : Yes
Forced : No
Скріншоти:


Автор запису: wm.morgun


 Трекер:    Зареєстрований   

Завантажити / скачати торрент



відео для новачків



 Зареєстрований:   2018-04-15 11:09
 Розмір:   12.61 GB 
 Оцінка:   10/10 (Голосів: 10)
   
dj_lion17 
Новенький


З нами з: 14.04.17
Востаннє: 17.09.20
Повідомлень: 1

2018-04-15 11:16  
А в 720р буде гонка і коли очікувати, якщо буде?
sergiyko.5 
VIP


З нами з: 25.02.16
Востаннє: 27.10.20
Повідомлень: 3636

2018-04-15 11:19  
dj_lion17
Через 10 хвилин.

BazaF1 
Новенький


З нами з: 18.06.10
Востаннє: 25.10.20
Повідомлень: 6

2018-04-15 11:27  
От якби спочатку 720 заливалиб булоб мабуть краще Wink (1)
Kapters 
Новенький


З нами з: 08.12.13
Востаннє: 27.10.20
Повідомлень: 24

2018-04-15 11:30  
BazaF1
Як я розумію, первинний файл - він 1080р, а 720р - конвертований. І заливають відразу.

Велика подяка автору за оперативність!!!

Afrila 
Новенький


З нами з: 25.10.11
Востаннє: 04.01.20
Повідомлень: 1

2018-04-15 13:07  
чомусь на телевізорі не працює
VicCob 
Свій


З нами з: 16.06.10
Востаннє: 25.10.20
Повідомлень: 58

2018-04-15 14:39  
Дякую за оперативність та високу якість! Happy
yurchyks 
Новенький


З нами з: 04.11.10
Востаннє: 16.10.20
Повідомлень: 16

2018-04-28 18:40  
@sergiyko.5
привіт, коли планується кваліфікація Азербайджану?
наперед дякую

sergiyko.5 
VIP


З нами з: 25.02.16
Востаннє: 27.10.20
Повідомлень: 3636

2018-04-28 19:40  
Привіт, прийшов з роботи, починаю зводити.
Ваш часовий пояс: GMT + 2 Години

Нова тема   Відповісти