Таємний Агент / Unlocked (2017) Remux 1080p Ukr/Eng | Sub Eng

Нові коментарі

Нова тема   Відповісти
Автор Повідомлення
Devil_my_cry 
Частий відвідувач


З нами з: 26.06.10
Востаннє: 10.10.18
Повідомлень: 43

2018-04-15 10:45  
Таємний Агент / Unlocked (2017) Remux 1080p Ukr/Eng | Sub Eng

Таємний Агент / Unlocked (2017) Remux 1080p Ukr/Eng | Sub Eng


Жанр: трилер, бойовик
Країна: Велика Британія



Кінокомпанія: Bloom, Czech Anglo Productions, Di Bonaventura Pictures, Lip Sync Productions, Silver Reel, SRA Productions, Unlocked Distribution
Режисер: Майкл Ептід / Michael Apted
Актори: Нумі Рапас / Noomi Rapace, Орландо Блум / Orlando Bloom, Майкл Дуглас / Michael Douglas, Тоні Коллетт / Toni Collette, Джон Малковіч / John Malkovich, Акшай Кумар / Akshay Kumar, Еделайо Едедайо / Adelayo Adedayo, Філіп Броді / Philip Brodie, Тосін Коул / Tosin Cole, Браян Каспе / Brian Caspe

Сюжет:
Терористична група планує масштабну біологічну атаку на Лондон. Їм вдається захопити агента ЦРУ і отримати доступ до секретної інформації, яка ставить під загрозу життя всіх жителів мегаполісу. Щоб запобігти трагедії, команда досвідчених агентів продумує план звільнення колеги та порятунку Лондона.

Рейтинг MPAA: R - особам до 17 років обов'язкова присутність батьків або дорослого опікуна
Вікова категорія: 16+

Тривалість: 01:38:22
Якість: Remux 1080p
Відео:
кодек:
розмір кадру: 1920x1080
бітрейт: 31,9 Мб/с

Аудіо # 1:
мова: українська
переклад: професійний дубльований | AAA-sound
кодек: 2.0
бітрейт: 192 кб/с

Аудіо # 2:
мова: англійська
переклад: оригінал
кодек: -HD MA 5.1
бітрейт: 3682 кб/с

Субтитри # 1-3 (повні, SDH, SDH Colored):
мова: англійська
тип: програмні (м'які)
формат: *.srt
Info
Video
ID : 1
Format : AVC
Format/Info : Advanced Video Codec
Format profile : [email protected]
Format settings : CABAC / 3 Ref Frames
Format settings, CABAC : Yes
Format settings, ReFrames : 3 frames
Codec ID : V_MPEG4/ISO/AVC
Duration : 1 h 38 min
Bit rate mode : Variable
Bit rate : 31.9 Mb/s
Maximum bit rate : 34.0 Mb/s
Width : 1 920 pixels
Height : 1 080 pixels
Display aspect ratio : 16:9
Frame rate mode : Constant
Frame rate : 24.000 FPS
Standard : NTSC
Color space : YUV
Chroma subsampling : 4:2:0
Bit depth : 8 bits
Scan type : Progressive
Bits/(Pixel*Frame) : 0.641
Stream size : 21.9 GiB (89%)
Language : English
Default : Yes
Forced : No
Color range : Limited
Color primaries : BT.709
Transfer characteristics : BT.709
Matrix coefficients : BT.709

Audio #1
ID : 2
Format : AC-3
Format/Info : Audio Coding 3
Codec ID : A_AC3
Duration : 1 h 38 min
Bit rate mode : Constant
Bit rate : 192 kb/s
Channel(s) : 2 channels
Channel positions : Front: L R
Sampling rate : 48.0 kHz
Frame rate : 31.250 FPS (1536 SPF)
Bit depth : 16 bits
Compression mode : Lossy
Stream size : 135 MiB (1%)
Title : [UA-DUB]
Language : Ukrainian
Service kind : Complete Main
Default : Yes
Forced : Yes

Audio #2
ID : 3
Format :
Format/Info : Digital Theater Systems
Format profile : MA / Core
Codec ID : A_DTS
Duration : 1 h 38 min
Bit rate mode : Variable / Constant
Bit rate : 3 682 kb/s / 768 kb/s
Channel(s) : 6 channels
Channel positions : Front: L C R, Side: L R, LFE
Sampling rate : 48.0 kHz
Frame rate : 93.750 FPS (512 SPF)
Bit depth : 24 bits
Compression mode : Lossless / Lossy
Stream size : 2.53 GiB (10%)
Title : Original
Language : English
Default : No
Forced : No

Text #1
ID : 4
Format : UTF-8
Codec ID : S_TEXT/UTF8
Codec ID/Info : UTF-8 Plain Text
Duration : 1 h 30 min
Bit rate : 55 b/s
Count of elements : 1065
Stream size : 36.8 KiB (0%)
Title : Full
Language : English
Default : No
Forced : No

Text #2
ID : 5
Format : UTF-8
Codec ID : S_TEXT/UTF8
Codec ID/Info : UTF-8 Plain Text
Duration : 1 h 30 min
Bit rate : 61 b/s
Count of elements : 1194
Stream size : 40.7 KiB (0%)
Title : SDH
Language : English
Default : No
Forced : No

Text #3
ID : 6
Format : UTF-8
Codec ID : S_TEXT/UTF8
Codec ID/Info : UTF-8 Plain Text
Duration : 1 h 30 min
Bit rate : 76 b/s
Count of elements : 1194
Stream size : 50.7 KiB (0%)
Title : SDH Colored
Language : English
Default : No
Forced : No

Menu
00:00:00.000 : en:00:00:00.000
00:07:36.583 : en:00:07:36.583
00:16:21.583 : en:00:16:21.583
00:23:34.417 : en:00:23:34.417
00:31:06.250 : en:00:31:06.250
00:38:49.125 : en:00:38:49.125
00:47:00.500 : en:00:47:00.500
00:53:55.333 : en:00:53:55.333
01:03:15.208 : en:01:03:15.208
01:09:50.250 : en:01:09:50.250
01:17:26.667 : en:01:17:26.667
01:24:01.542 : en:01:24:01.542
Скріншоти





Джерело:
Особиста оцінка: 8 - мені сподобалося


Золотий реліз (завантажене не впливає на рейтинг)
 Трекер:    Зареєстрований   

Завантажити / скачати фільм українською



відео для новачків



 Зареєстрований:   2018-04-15 10:45
 Розмір:   24.57 GB 
 Оцінка фільму:   8/10 (Голосів: 7)
   
Інші релізи
   Таємний Агент / Unlocked (2017) 1080p Ukr/Eng | Sub Eng staf777  1 / 0   9.92 GB   2018-04-03 19:22 
   Таємний Агент / Unlocked (2017) 720p Ukr/Eng | Sub Eng igor911  15 / 0   4.01 GB   2017-08-30 20:31 
   Таємний Агент / Unlocked (2017) AVC Ukr/Eng | Sub Eng dark_inwhite  16 / 0   1.99 GB   2017-08-30 15:32 
   Таємний Агент / Unlocked (2017) Ukr/Eng dark_inwhite  15 / 0   1.52 GB   2017-08-30 15:31 
Ваш часовий пояс: GMT + 2 Години

Нова тема   Відповісти