Формула 1. Сезон 2018. Етап 3. Гран-Прі Китаю. Кваліфікація (14.04.2018) 1080p

Нові коментарі

Нова тема   Відповісти
Останній раз роздавалося VicCob (2020-09-06)
Автор Повідомлення
sergiyko.5 
VIP


З нами з: 25.02.16
Востаннє: 29.10.20
Повідомлень: 3647

2018-04-14 10:54  
Формула 1. Сезон 2018. Етап 3. Гран-Прі Китаю. Кваліфікація (14.04.2018) 1080p


Формула 1. Сезон 2018. Етап 3. Гран-Прі Китаю. Кваліфікація (14.04.2018) 1080p

Жанр: Перегони Формули 1
Країна: Китай
Телеканал: Перший автомобільний
Коментатор: Максим Подзігун

Опис:
Кваліфікація третьго сезону Гран-Прі Китаю 2018 року відбулась о 09:00 за київським часом.


Тривалість: 01:15:22
Якість:

Відео: кодек: розмір кадру: 1920 х 1080 бітрейт: 14000 кб/с
Аудіо: мова: українська кодек: 2.0 бітрейт: 160 кб/с

Дод. інформація: перші 16 хвилин запис зроблено у якості SD.
Про файл:
General
Unique ID : 169158980408104614804743828519724875496 (0x7F42D5A693759528BDF7C8FAD5D17EE8)
Complete name : D:\Torrents\SPORT\Formula 1\F1.2018.Qualifying\F1.2018.03.Chinese.Qualifying.1080p..Ukr.
Format :
Format version : Version 4 / Version 2
File size : 7.45 GiB
Duration : 1 h 15 min
Overall bit rate mode : Variable
Overall bit rate : 14.2 Mb/s
Encoded date : UTC 2018-04-14 08:49:01
Writing application : v22.0.0 ('At The End Of The World') 64-bit
Writing library : libebml v1.3.5 + v1.4.8

Video
ID : 1
Format : AVC
Format/Info : Advanced Video Codec
Format profile : [email protected]
Format settings, CABAC : Yes
Format settings, ReFrames : 1 frame
Codec ID : V_MPEG4/ISO/AVC
Duration : 1 h 15 min
Bit rate mode : Variable
Bit rate : 14.0 Mb/s
Maximum bit rate : 40.0 Mb/s
Width : 1 920 pixels
Height : 1 080 pixels
Display aspect ratio : 16:9
Frame rate mode : Constant
Frame rate : 50.000 FPS
Color space : YUV
Chroma subsampling : 4:2:0
Bit depth : 8 bits
Scan type : Progressive
Bits/(Pixel*Frame) : 0.135
Stream size : 7.37 GiB (99%)
Language : English
Default : Yes
Forced : No

Audio
ID : 2
Format :
Format/Info : Advanced Audio Codec
Format profile : LC
Codec ID : A_AAC
Duration : 1 h 15 min
Bit rate : 160 kb/s
Channel(s) : 2 channels
Channel positions : Front: L R
Sampling rate : 48.0 kHz
Frame rate : 46.875 FPS (1024 spf)
Compression mode : Lossy
Delay relative to video : 18 ms
Stream size : 86.1 MiB (1%)
Language : Ukrainian
Default : Yes
Forced : No
Скріншоти:


 Трекер:    Зареєстрований   

Завантажити / скачати торрент



відео для новачків



 Зареєстрований:   2018-04-14 10:54
 Розмір:   7.45 GB 
 Оцінка:   10/10 (Голосів: 5)
   
VicCob 
Свій


З нами з: 16.06.10
Востаннє: 25.10.20
Повідомлень: 58

2018-04-14 13:41  
Дякую за якість і швидкість - маю надію завтра гонка так само буде виставлена швидко і в цій якості. Happy
legioneRRR 
Частий відвідувач


З нами з: 02.01.15
Востаннє: 28.10.20
Повідомлень: 33

2018-04-14 16:42  
На Першому Автомобільному 720р трансляція?
BazaF1 
Новенький


З нами з: 18.06.10
Востаннє: 25.10.20
Повідомлень: 6

2018-04-15 06:32  
Йоханий чомуж я ранiше тут не шукав формулу . Велике людське дякую
Ваш часовий пояс: GMT + 2 Години

Нова тема   Відповісти