Формула 1. Сезон 2018. Етап 3. Гран-Прі Китаю. Кваліфікація (14.04.2018) 720p

Нові коментарі

Нова тема   Відповісти
Автор Повідомлення
sergiyko.5 
VIP


З нами з: 25.02.16
Востаннє: 25.10.20
Повідомлень: 3616

2018-04-14 10:12  
Формула 1. Сезон 2018. Етап 3. Гран-Прі Китаю. Кваліфікація (14.04.2018) 720p


Формула 1. Сезон 2018. Етап 3. Гран-Прі Китаю. Кваліфікація (14.04.2018) 720p

Жанр: Перегони Формули 1
Країна: Китай
Телеканал: Перший автомобільний
Коментатор: Максим Подзігун

Опис:
Кваліфікація третьго сезону Гран-Прі Китаю 2018 року відбулась о 09:00 за київським часом.


Тривалість: 01:01:50
Якість:

Відео: кодек: розмір кадру: 1280 х 720 бітрейт: 4000 кб/с
Аудіо: мова: українська кодек: MP2 2.0 бітрейт: 192 кб/с

Дод. інформація: відео з Матч-ТБ має вирізану рекламу, тому час кінцевого відеофайла коротший за час прямої трансляції.
Про файл:
General
Unique ID : 320412118638956829101029619574563221076 (0xF10D211F40C1AF97B9A8EABC7ED12E54)
Complete name : D:\Torrents\SPORT\Formula 1\F1.2018.Qualifying\F1.2018.03.Chinese.Qualifying.720p..Ukr.
Format :
Format version : Version 4 / Version 2
File size : 1.82 GiB
Duration : 1 h 1 min
Overall bit rate : 4 223 kb/s
Movie name : F1 2018 03 Chinese Qualifying 720p by sergiyko
Encoded date : UTC 2018-04-14 08:01:17
Writing application : v22.0.0 ('At The End Of The World') 64-bit
Writing library : libebml v1.3.5 + v1.4.8

Video
ID : 1
Format : AVC
Format/Info : Advanced Video Codec
Format profile : [email protected]
Format settings, CABAC : Yes
Format settings, ReFrames : 4 frames
Codec ID : V_MPEG4/ISO/AVC
Duration : 1 h 1 min
Bit rate : 4 028 kb/s
Width : 1 280 pixels
Height : 720 pixels
Display aspect ratio : 16:9
Frame rate mode : Constant
Frame rate : 50.000 FPS
Color space : YUV
Chroma subsampling : 4:2:0
Bit depth : 8 bits
Scan type : Progressive
Bits/(Pixel*Frame) : 0.087
Stream size : 1.74 GiB (95%)
Language : English
Default : Yes
Forced : No
Color range : Limited
Color primaries : BT.709
Transfer characteristics : BT.709
Matrix coefficients : BT.709

Audio
ID : 2
Format : MPEG Audio
Format version : Version 1
Format profile : Layer 2
Codec ID : A_MPEG/L2
Codec ID/Hint : MP2
Duration : 1 h 1 min
Bit rate mode : Constant
Bit rate : 192 kb/s
Channel(s) : 2 channels
Sampling rate : 48.0 kHz
Frame rate : 41.667 FPS (1152 spf)
Compression mode : Lossy
Delay relative to video : -200 ms
Stream size : 84.9 MiB (5%)
Title : 1 Авто | Максим Подзігун
Language : Ukrainian
Default : Yes
Forced : No
Скріншоти:


Автор запису/зведення: sergiyko


 Трекер:    Зареєстрований   

Завантажити / скачати торрент



відео для новачків



 Зареєстрований:   2018-04-14 10:12
 Розмір:   1.82 GB 
 Оцінка:   9.6/10 (Голосів: 7)
   
11FrYkT 
Модератор відео


З нами з: 20.02.11
Востаннє: 25.10.20
Повідомлень: 7006

2018-04-15 07:45  
sergiyko.5 , скріншоти додайте
beat` 
Новенький


З нами з: 03.11.14
Востаннє: 24.10.20
Повідомлень: 8

2018-04-15 09:59  
Коли чекати гонку?
BazaF1 
Новенький


З нами з: 18.06.10
Востаннє: 21.10.20
Повідомлень: 6

2018-04-15 10:29  
beat`
Також жду , надiюсь до 12 зальють

sergiyko.5 
VIP


З нами з: 25.02.16
Востаннє: 25.10.20
Повідомлень: 3616

2018-04-15 10:32  
beat`
BazaF1
Вона тільки об 11 закінчілась, треба завантажити з інтернету відео і звести зі звуком, це не за п'ять хвилин робиться.

Додано через 30 хвилин.

З'явилась нова можливість отримувати вже готові відеофайли, шукайте на трекері у розділі "Авто,мото" готові ріпи.

beat` 
Новенький


З нами з: 03.11.14
Востаннє: 24.10.20
Повідомлень: 8

2018-04-15 10:43  
Сорі, я не в курсі коли гонка закінчилась(
Ваш часовий пояс: GMT + 2 Години

Нова тема   Відповісти