Зменшення / Downsizing (2017) 1080p H.265 Ukr/Eng | Sub Ukr/Eng

Нові коментарі

Нова тема   Відповісти
Автор Повідомлення
igor302 
Свій


З нами з: 27.10.11
Востаннє: 15.11.18
Повідомлень: 108

2018-04-14 03:55  
Зменшення / Downsizing (2017) 1080p H.265 Ukr/Eng | Sub Ukr/Eng

Зменшення / Downsizing (2017) 1080p H.265 Ukr/Eng | Sub Ukr/Eng

Жанр: драма, комедія, фантастика
Країна: США, Норвегія



Кінокомпанія: Paramount Pictures, Ad Hominem Enterprises
Режисер: Александр Пейн
Актори: Метт Деймон, Крістоф Вальц, Крістен Віґ, Хонґ Чау, Джейсон Судейкіс, Ніл Патрік Гарріс, Лора Дерн, Рольф Лассгорд, Удо Кір, Серен Пільмарк та інші

Сюжет:
Наша планета давно вже страждає від перенаселення. Комусь не вистачає їжі, комусь не вистачає вільного простору, а комусь – статків на розкішне життя. Вчені винайшли спосіб безповоротно зменшувати людей. Це дозволить економити природні ресурси. Тепер крихітні чоловіки та жінки – зростом усього 13 см – ведуть повноцінне життя у своєму окремому від звичайних людей світі. Пол разом із дружиною Одрі наважуються на зменшення.


Тривалість: 02:15:20
Якість:
Відео:
кодек: H.265 (HEVC)
розмір кадру: 1920 х 804
бітрейт: 6 635 кб/с
бітова глибина: 10 біт
Увага! Перед завантаженням переконайтесь, що ваш пристрій відтворення (та/або ПЗ) підтримують H.265 (HEVC) та 10 біт

Аудіо # 1:
мова: українська
переклад: професійний дубльований
кодек: 2.0
бітрейт: 192 кб/с

Аудіо # 2:
мова: англійська
переклад: оригінал
кодек: 5.1
бітрейт: 384 кб/с

Субтитри (Full, Forced):
мова: українська
тип: програмні (м'які)
формат: *.srt

Субтитри (Full, SHD, SHD-Colored):
мова: англійська
тип: програмні (м'які)
формат: *.srt
Info
General
Unique ID : 282237148090132569688304179895510120577 (0xD454E5C211EF71A52B3DB4DE1E123881)
Complete name : F:\Video\Downsizing (2017) 1080p H.265 [UKR_ENG] [Hurtom].
Format :
Format version : Version 4 / Version 2
File size : 6.82 GiB
Duration : 2 h 15 min
Overall bit rate : 7 213 kb/s
Encoded date : UTC 2018-04-14 00:33:41
Writing application : v22.0.0 ('At The End Of The World') 64-bit
Writing library : libebml v1.3.5 + v1.4.8

Video
ID : 1
Format : HEVC
Format/Info : High Efficiency Video Coding
Format profile : Main [email protected]@High
Codec ID : V_MPEGH/ISO/HEVC
Duration : 2 h 15 min
Bit rate : 6 635 kb/s
Width : 1 920 pixels
Height : 804 pixels
Display aspect ratio : 2.40:1
Frame rate mode : Constant
Frame rate : 23.976 (24000/1001) FPS
Color space : YUV
Chroma subsampling : 4:2:0
Bit depth : 10 bits
Bits/(Pixel*Frame) : 0.179
Stream size : 6.27 GiB (92%)
Writing library : x265 2.7+8-613d9f443769:[Windows][clang 7.0.0][64 bit] 10bit
Encoding settings : cpuid=1050111 / frame-threads=5 / numa-pools=4 / wpp / no-pmode / no-pme / no-psnr / no-ssim / log-level=3 / input-csp=1 / input-res=1920x804 / interlace=0 / total-frames=0 / level-idc=41 / high-tier=1 / uhd-bd=0 / ref=3 / allow-non-conformance / no-repeat-headers / annexb / no-aud / no-hrd / info / hash=0 / no-temporal-layers / open-gop / min-keyint=24 / keyint=240 / gop-lookahead=0 / bframes=4 / b-adapt=2 / b-pyramid / bframe-bias=0 / rc-lookahead=20 / lookahead-slices=5 / scenecut=40 / radl=0 / no-intra-refresh / ctu=64 / min-cu-size=8 / no-rect / no-amp / max-tu-size=32 / tu-inter-depth=1 / tu-intra-depth=1 / limit-tu=0 / rdoq-level=0 / dynamic-rd=0.00 / no-ssim-rd / signhide / no-tskip / nr-intra=0 / nr-inter=0 / no-constrained-intra / strong-intra-smoothing / max-merge=2 / limit-refs=3 / no-limit-modes / me=1 / subme=5 / merange=57 / temporal-mvp / weightp / no-weightb / no-analyze-src-pics / deblock=-4:-4 / sao / no-sao-non-deblock / rd=3 / no-early-skip / rskip / no-fast-intra / no-tskip-fast / no-cu-lossless / no-b-intra / no-splitrd-skip / rdpenalty=0 / psy-rd=2.00 / psy-rdoq=0.00 / no-rd-refine / no-lossless / cbqpoffs=0 / crqpoffs=0 / rc=crf / crf=18.0 / qcomp=0.60 / qpstep=4 / stats-write=0 / stats-read=0 / vbv-maxrate=50000 / vbv-bufsize=50000 / vbv-init=0.9 / crf-max=30.0 / crf-min=0.0 / ipratio=1.40 / pbratio=1.30 / aq-mode=1 / aq-strength=1.00 / cutree / zone-count=0 / no-strict-cbr / qg-size=32 / no-rc-grain / qpmax=69 / qpmin=0 / no-const-vbv / sar=1 / overscan=0 / videoformat=5 / range=0 / colorprim=2 / transfer=2 / colormatrix=2 / chromaloc=0 / display-window=0 / max-cll=0,0 / min-luma=0 / max-luma=1023 / log2-max-poc-lsb=8 / vui-timing-info / vui-hrd-info / slices=1 / no-opt-qp-pps / no-opt-ref-list-length-pps / no-multi-pass-opt-rps / scenecut-bias=0.05 / no-opt-cu-delta-qp / no-aq-motion / no-hdr / no-hdr-opt / no-dhdr10-opt / analysis-reuse-level=5 / scale-factor=0 / refine-intra=0 / refine-inter=0 / refine-mv=0 / no-limit-sao / ctu-info=0 / no-lowpass-dct / refine-mv-type=0 / copy-pic=1 / max-ausize-factor=1.0
Language : English
Default : Yes
Forced : No
Color range : Limited

Audio #1
ID : 2
Format : AC-3
Format/Info : Audio Coding 3
Codec ID : A_AC3
Duration : 2 h 15 min
Bit rate mode : Constant
Bit rate : 192 kb/s
Channel(s) : 2 channels
Channel positions : Front: L R
Sampling rate : 48.0 kHz
Frame rate : 31.250 FPS (1536 SPF)
Bit depth : 16 bits
Compression mode : Lossy
Stream size : 186 MiB (3%)
Title : 2.0 @ 192 kbps - DUB, iTunes
Language : Ukrainian
Service kind : Complete Main
Default : Yes
Forced : Yes

Audio #2
ID : 3
Format : AC-3
Format/Info : Audio Coding 3
Codec ID : A_AC3
Duration : 2 h 15 min
Bit rate mode : Constant
Bit rate : 384 kb/s
Channel(s) : 6 channels
Channel positions : Front: L C R, Side: L R, LFE
Sampling rate : 48.0 kHz
Frame rate : 31.250 FPS (1536 SPF)
Bit depth : 16 bits
Compression mode : Lossy
Stream size : 372 MiB (5%)
Title : 5.1 @ 384 kbps - Original
Language : English
Service kind : Complete Main
Default : No
Forced : No

Text #1
ID : 4
Format : UTF-8
Codec ID : S_TEXT/UTF8
Codec ID/Info : UTF-8 Plain Text
Duration : 2 h 14 min
Bit rate : 90 b/s
Count of elements : 1762
Stream size : 89.4 KiB (0%)
Title : Full
Language : Ukrainian
Default : No
Forced : No

Text #2
ID : 5
Format : UTF-8
Codec ID : S_TEXT/UTF8
Codec ID/Info : UTF-8 Plain Text
Duration : 2 h 14 min
Bit rate : 2 b/s
Count of elements : 41
Stream size : 2.04 KiB (0%)
Title : Forced
Language : Ukrainian
Default : Yes
Forced : Yes

Text #3
ID : 6
Format : UTF-8
Codec ID : S_TEXT/UTF8
Codec ID/Info : UTF-8 Plain Text
Duration : 2 h 4 min
Bit rate : 58 b/s
Count of elements : 1633
Stream size : 53.5 KiB (0%)
Title : Full
Language : English
Default : No
Forced : No

Text #4
ID : 7
Format : UTF-8
Codec ID : S_TEXT/UTF8
Codec ID/Info : UTF-8 Plain Text
Duration : 2 h 7 min
Bit rate : 63 b/s
Count of elements : 1914
Stream size : 58.8 KiB (0%)
Title : SHD
Language : English
Default : No
Forced : No

Text #5
ID : 8
Format : UTF-8
Codec ID : S_TEXT/UTF8
Codec ID/Info : UTF-8 Plain Text
Duration : 2 h 7 min
Bit rate : 72 b/s
Count of elements : 1914
Stream size : 67.1 KiB (0%)
Title : SHD-Colored
Language : English
Default : No
Forced : No

Menu
00:00:00.000 : :Chapter 01
00:06:13.539 : :Chapter 02
00:10:38.346 : :Chapter 03
00:16:24.483 : :Chapter 04
00:22:14.666 : :Chapter 05
00:30:23.905 : :Chapter 06
00:38:44.363 : :Chapter 07
00:42:38.597 : :Chapter 08
00:47:36.687 : :Chapter 09
00:55:08.722 : :Chapter 10
01:04:35.830 : :Chapter 11
01:13:11.595 : :Chapter 12
01:21:13.201 : :Chapter 13
01:28:00.775 : :Chapter 14
01:33:25.308 : :Chapter 15
01:41:42.513 : :Chapter 16
01:44:11.870 : :Chapter 17
01:51:54.374 : :Chapter 18
01:58:36.442 : :Chapter 19
02:08:58.856 : :Chapter 20
Скріншоти



Джерело:
Особиста оцінка: 0 - не дивився


 Трекер:    Зареєстрований   

Завантажити / скачати фільм українською



відео для новачків



 Зареєстрований:   2018-04-14 03:55
 Розмір:   6.82 GB 
 Оцінка фільму:   8.7/10 (Голосів: 17)
   
Інші релізи
   Зменшення / Downsizing (2017) Ukr/Eng | Sub Ukr/Eng igor911  2 / 0   2.31 GB   2018-04-14 00:40 
   Зменшення / Downsizing (2017) 1080p Ukr/Eng | Sub Ukr/Eng staf777  1 / 0   16.54 GB   2018-04-13 23:49 
   Зменшення / Downsizing (2017) Remux 1080p Ukr/Eng | Sub Ukr/Eng igor911  1 / 0   28.46 GB   2018-04-13 23:18 
   Зменшення / Downsizing (2017) igor911  2 / 0   1.46 GB   2018-04-13 23:05 
   Зменшення / Downsizing (2017) AVC Ukr/Eng | Sub Ukr/Eng 11FrYkT  2 / 0   2.69 GB   2018-04-13 22:54 
   Зменшення / Downsizing (2017) 720p Ukr/Eng | Sub Ukr/Eng 11FrYkT  6 / 0   5.16 GB   2018-04-13 22:53 
   Зменшення / Downsizing (2017) AVC Ukr/Eng | Sub Ukr/Eng uafilm.tv  7 / 0   1.58 GB   2018-04-13 21:34 
Wowatorrent 
Поважний учасник


З нами з: 24.03.16
Востаннє: 20.05.19
Повідомлень: 164

2018-04-15 03:10  
Додавайте, будь ласка, обкладинки до своїх релізів.
igor302 
Свій


З нами з: 27.10.11
Востаннє: 15.11.18
Повідомлень: 108

2018-04-15 03:42  
Wowatorrent
Гаразд

Ваш часовий пояс: GMT + 2 Години

Нова тема   Відповісти