Формула 1. Сезон 2018. Етап 3. Гран-Прі Китаю. 2 практика (13.04.2018) 720p

Нові коментарі

Нова тема   Відповісти
Останній раз роздавалося sergiyko.5 (2018-06-05)
Автор Повідомлення
sergiyko.5 
VIP


З нами з: 25.02.16
Востаннє: 24.10.20
Повідомлень: 3614

2018-04-13 12:06  
Формула 1. Сезон 2018. Етап 3. Гран-Прі Китаю. 2 практика (13.04.2018) 720p


Формула 1. Сезон 2018. Етап 3. Гран-Прі Китаю. 2 практика (13.04.2018) 720p

Жанр: Перегони Формули 1
Країна: Китай
Телеканал: Перший автомобільний
Коментатор: Павло Воробйов

Опис:
Друга практика третього сезону Гран-Прі Китаю 2018 року відбулась о 09:00 годині за київським часом.


Тривалість: 01:39:53
Якість:

Відео:кодек: розмір кадру: 1280 х 720 бітрейт: 4000 кб/с
Аудіо: мова: українська кодек: 2.0 бітрейт: 192 кб/с
Про файл:
General
Unique ID : 297871421045984604696924373424568351815 (0xE017F2ED886A5D66A50886ECA4953C47)
Complete name : D:\Torrents\SPORT\Formula 1\F1.2018.03.Chinese.Practice.2.720p..
Format :
Format version : Version 4 / Version 2
File size : 2.91 GiB
Duration : 1 h 39 min
Overall bit rate : 4 169 kb/s
Movie name : F1 2018 03 Chinese Practice 2 720p by sergiyko
Encoded date : UTC 2018-04-13 08:57:40
Writing application : v22.0.0 ('At The End Of The World') 64-bit
Writing library : libebml v1.3.5 + v1.4.8

Video
ID : 1
Format : AVC
Format/Info : Advanced Video Codec
Format profile : [email protected]
Format settings, CABAC : Yes
Format settings, ReFrames : 4 frames
Format settings, GOP : M=2, N=15
Codec ID : V_MPEG4/ISO/AVC
Duration : 1 h 39 min
Bit rate : 3 974 kb/s
Width : 1 280 pixels
Height : 720 pixels
Display aspect ratio : 16:9
Frame rate mode : Constant
Frame rate : 50.000 FPS
Color space : YUV
Chroma subsampling : 4:2:0
Bit depth : 8 bits
Scan type : Progressive
Bits/(Pixel*Frame) : 0.086
Stream size : 2.77 GiB (95%)
Language : English
Default : Yes
Forced : No
Color range : Limited
Color primaries : BT.709
Transfer characteristics : BT.709
Matrix coefficients : BT.709

Audio
ID : 2
Format : AC-3
Format/Info : Audio Coding 3
Mode extension : CM (complete main)
Format settings, Endianness : Big
Codec ID : A_AC3
Duration : 1 h 39 min
Bit rate mode : Constant
Bit rate : 192 kb/s
Channel(s) : 2 channels
Channel positions : Front: L R
Sampling rate : 48.0 kHz
Frame rate : 31.250 FPS (1536 spf)
Bit depth : 16 bits
Compression mode : Lossy
Delay relative to video : -200 ms
Stream size : 137 MiB (5%)
Title : 1 Авто | Павло Воробйов
Language : Ukrainian
Default : Yes
Forced : No
Скріншоти:


Автор запису/зведення: sergiyko


 Трекер:    Зареєстрований   

Завантажити / скачати торрент



відео для новачків



 Зареєстрований:   2018-04-13 12:06
 Розмір:   2.91 GB 
 Оцінка:   10/10 (Голосів: 3)
   
bred_1 
Новенький


З нами з: 01.01.17
Востаннє: 17.10.20
Повідомлень: 1

2018-04-13 14:29  
Чому на скріншотах стоїть емблема "Матч! Арена", а в описі вказується, що відео з Першого автомобільного?
І чому вказано час проведення практики "13:00 за київським часом"?

sevenbe 
Новенький


З нами з: 25.03.13
Востаннє: 26.09.20
Повідомлень: 1

2018-04-13 15:55  
а перша практика буде?
sergiyko.5 
VIP


З нами з: 25.02.16
Востаннє: 24.10.20
Повідомлень: 3614

2018-04-13 16:18  
sevenbe
Не буде.

Ваш часовий пояс: GMT + 2 Години

Нова тема   Відповісти