Рівердейл (Cезон 2) / Riverdale (Season 2) (2018) 1080p Eng | sub Ukr

Нові коментарі

Нова тема   Відповісти
Автор Повідомлення
pskrm 
Свій


З нами з: 04.03.17
Востаннє: 15.06.19
Повідомлень: 92

2018-04-12 08:17  
Рівердейл (Cезон 2) / Riverdale (Season 2) (2018) 1080p Eng | sub Ukr

Рівердейл (Cезон 2) / Riverdale (Season 2) (2018) 1080p Eng | sub Ukr
Альтернативні постери:




Автор постерів - DanyZemlyanoy


Жанр: драма, детектив, кримінальний
Країна: США



Кінокомпанія: The CW
Режисер: Лі Толанд Кріґер, Роб Сайденґланц, Кевін Родні Салліван
Актори: Кей Джей Апа, Лілі Рейнхарт, Коул Спроус

Сюжет:
Серіал розповідає про старшокласника Арчі та його друзів, які вирішують дослідити невелике містечко Рівердейл,чим далі вони досліджують місто тим більше пізнають його похмурі таємниці.


Тривалість: 00:40:00 x 22 серії
Перелік серій

01. Chapter Fourteen: A Kiss Before Dying / Розділ чотирнадцятий. Цілунок перед сконом
02. Chapter Fifthteen: Nighthawks / Розділ п'ятнадцятий. Опівнічники
03. Chapter Sixteen: The Watcher in the Woods / Розділ шістнадцятий. Той, хто спостерігає у лісі
04. Chapter Seventeen: The Town That Dreaded Sundown / Розділ сімнадцятий. Місто, яке боїться заходу сонця
05. Chapter Eighteen: When a Stranger Calls / Розділ вісімнадцятий. Коли подзвонив незнайомець
06. Chapter Nineteen: Death Proof / Розділ дев'ятнадцятий. Смертельний доказ
07. Chapter Twenty: Tales from the Darkside / Розділ двадцятий: Оповідки з темної сторони
08. Chapter Twenty One: House of the Devil / Розділ двадцять перший. Будинок диявола
09. Chapter Twenty Two: Silent Night, Deadly Night / Розділ двадцять другий. Мирна ніч, мертва ніч
10. Chapter Twenty Three: The Blackboard Jungle / Розділ двадцять третій. Шкільні джунглі
11. Chapter Twenty Four: The Wrestler / Розділ двадцять четвертий. Борець
12. Chapter Twenty Five: The Wicked and the Divine / Розділ двадцять п'ятий. Святі й грішні
13. Chapter Twenty Six: The Tell-Tale Heart / Розділ двадцять шостий. Серце пліткарки
14. Chapter Twenty Seven: The Hills Have Eyes / Розділ двадцять сьомий. У пагорбів є очі
15. Chapter Twenty Eight: There Will Be Blood / Розділ двадцять восьмий. Поллються ріки крові
16. Chapter Twenty Nine: Primary Colors / Розділ двадцять дев'ятий. Основні кольори
17. Chapter Thirty: The Noose Tightens / Розділ тридцятий. Петля стягується
18. Chapter Thirty-One: A Night to Remember / Розділ тридцять перший. Запам'ятайте цю ніч
19. Chapter Thirty-Two: Prisoners / Розділ тридцять другий. В'язні
20. Chapter Thirty-Three: Shadow of a Doubt / Розділ тридцять третій. Тінь сумнівів
21. Chapter Thirty-Four: Judgment Night / Розділ тридцять четвертий. Ніч розплати
22. Chapter Thirty-Five: Brave New World / Розділ тридцять п'ятий. Новий сміливий світ
Якість:
Відео:
кодек:
розмір кадру: 1920 x 1080
бітрейт: 4501 кб/с

Аудіо:
мова: англійська
переклад: оригінал
кодек: 2.0
бітрейт: 160 кб/с

Субтитри:
мова: українська
тип: програмні (м'які)
формат: *.srt

Субтитри :власний переклад
Medianfo

General
Complete name : D:\ProSub\Riverdale\subbed\Riverdale.Season.2\Riverdale.s02e01.mp4
Format : MPEG-4
Format profile : Base Media / Version 2
Codec ID : mp42 (isom/iso2/avc1/mp41)
File size : 1.39 GiB
Duration : 42 min 34 s
Overall bit rate mode : Variable
Overall bit rate : 4 668 kb/s
Encoded date : UTC 2018-04-11 18:54:13
Tagged date : UTC 2018-04-11 18:54:13
Writing application : HandBrake 1.0.7 2017040900

Video
ID : 1
Format : AVC
Format/Info : Advanced Video Codec
Format profile : [email protected]
Format settings : CABAC / 4 Ref Frames
Format settings, CABAC : Yes
Format settings, RefFrames : 4 frames
Codec ID : avc1
Codec ID/Info : Advanced Video Coding
Duration : 42 min 34 s
Bit rate : 4 501 kb/s
Width : 1 920 pixels
Height : 1 080 pixels
Display aspect ratio : 16:9
Frame rate mode : Variable
Frame rate : 23.976 (24000/1001) FPS
Minimum frame rate : 23.974 FPS
Maximum frame rate : 23.981 FPS
Color space : YUV
Chroma subsampling : 4:2:0
Bit depth : 8 bits
Scan type : Progressive
Bits/(Pixel*Frame) : 0.091
Stream size : 1.34 GiB (96%)
Writing library : core 148 r2708 86b7198
Encoding settings : cabac=1 / ref=4 / deblock=1:0:0 / analyse=0x1:0x111 / me=umh / subme=8 / psy=1 / psy_rd=1.00:0.00 / mixed_ref=1 / me_range=16 / chroma_me=1 / trellis=1 / 8x8dct=0 / cqm=0 / deadzone=21,11 / fast_pskip=1 / chroma_qp_offset=-2 / threads=3 / lookahead_threads=1 / sliced_threads=0 / nr=0 / decimate=1 / interlaced=0 / bluray_compat=0 / constrained_intra=0 / bframes=3 / b_pyramid=2 / b_adapt=2 / b_bias=0 / direct=3 / weightb=1 / open_gop=0 / weightp=2 / keyint=240 / keyint_min=24 / scenecut=40 / intra_refresh=0 / rc_lookahead=50 / rc=crf / mbtree=1 / crf=20.0 / qcomp=0.60 / qpmin=0 / qpmax=69 / qpstep=4 / vbv_maxrate=20000 / vbv_bufsize=25000 / crf_max=0.0 / nal_hrd=none / filler=0 / ip_ratio=1.40 / aq=1:1.00
Encoded date : UTC 2018-04-11 18:54:13
Tagged date : UTC 2018-04-11 18:54:13
Color range : Limited
Color primaries : BT.709
Transfer characteristics : BT.709
Matrix coefficients : BT.709

Audio
ID : 2
Format :
Format/Info : Advanced Audio Codec
Format profile : LC
Codec ID : mp4a-40-2
Duration : 42 min 34 s
Bit rate mode : Variable
Bit rate : 160 kb/s
Channel(s) : 2 channels
Channel positions : Front: L R
Sampling rate : 48.0 kHz
Frame rate : 46.875 FPS (1024 SPF)
Compression mode : Lossy
Stream size : 48.7 MiB (3%)
Title : Stereo / Stereo
Language : English
Default : Yes
Alternate group : 1
Encoded date : UTC 2018-04-11 18:54:13
Tagged date : UTC 2018-04-11 18:54:13

Text
ID : 3
Format : Timed Text
Muxing mode : sbtl
Codec ID : tx3g
Duration : 42 min 13 s
Bit rate mode : Variable
Bit rate : 117 b/s
Stream size : 36.1 KiB (0%)
Language : Ukrainian
Default : Yes
Forced : No
Alternate group : 3
Encoded date : UTC 2018-04-11 18:54:13
Tagged date : UTC 2018-04-11 18:54:13
Скріншоти


Джерело:
Особиста оцінка: 8 - мені сподобалося


Золотий реліз (завантажене не впливає на рейтинг)
 Трекер:    Зареєстрований   

Завантажити / скачати серіал українською



відео для новачків



 Зареєстрований:   2018-11-04 00:11
 Розмір:   55.72 GB 
 Оцінка серіалу:   8.9/10 (Голосів: 13)
   
Uta_only 
Частий відвідувач


З нами з: 19.05.17
Востаннє: 16.06.19
Повідомлень: 26

2018-04-12 08:44  
О, дякую за переклад
Patriot_ukr 
VIP


З нами з: 06.04.15
Востаннє: 11.06.19
Повідомлень: 2269

2018-04-12 12:17  
Нарешті гарний ріпHappy Сподіваюсь, перший сезон "перевидасте" з гарною якістю.
leicheman 
Відео Гуртом - підтримка та поширення
Відео Гуртом - підтримка та поширення


З нами з: 03.07.14
Востаннє: 17.06.19
Повідомлень: 3697

2018-06-07 12:43  
Серіал продовжено на 3й сезон.
pskrm 
Свій


З нами з: 04.03.17
Востаннє: 15.06.19
Повідомлень: 92

2018-11-04 00:12  
Реліз оновлено!

Додано 21-22 серії!

_hellisa 
Свій


З нами з: 26.02.17
Востаннє: 16.06.19
Повідомлень: 118

2019-05-17 12:22  
Третій сезон тут.
Ваш часовий пояс: GMT + 2 Години

Нова тема   Відповісти