Банди Нью-Йорка / Gangs of New York (2002) [Remastered] Remux 1080p 2xUkr/Eng | Sub Eng

Нові коментарі

Нова тема   Відповісти
Автор Повідомлення
IronBee 
Поважний учасник


З нами з: 08.02.10
Востаннє: 20.09.20
Повідомлень: 231

2018-04-11 18:38  
Банди Нью-Йорка / Gangs of New York (2002) [Remastered] Remux 1080p 2xUkr/Eng | Sub Eng

Банди Нью-Йорка / Gangs of New York (2002) [Remastered] Remux 1080p 2xUkr/Eng | Sub Eng


Жанр: драма, кримінальний, історичний
Країна: США, Німеччина, Велика Британія, Нідерланди, Італія



Кінокомпанія: Miramax Films, Initial Entertainment Group (IEG), Alberto Grimaldi Productions
Режисер: Мартін Скорсезе / Martin Scorsese
Актори: Леонардо ДіКапріо / Leonardo DiCaprio, Деніел Дей-Льюїс / Daniel Day-Lewis, Камерон Діаз / Cameron Diaz, Лайам Нісон / Liam Neeson, Генрі Томас / Henry Thomas, Джим Броадбент / Jim Broadbent, Джон С. Райллі / John C. Reilly, Брендан Глісон / Brendan Gleeson, Гарі Льюїс / Gary Lewis, Стівен Грехем / Stephen Graham та інші

Сюжет:
Дія фільму відбувається в Нью-Йорку, протягом 1846-1863 років. Парубок на ім'я Амстердам (Леонардо Дікапріо), бажає помститися Біллу "М'ясникові" (Деніел Дей-Льюіс), людині, що вбила його батька. Він гарантує свою допомогу кишеньковому злодієві Джені Евердан, але завдання виявляється набагато більше небезпечним, ніж Амстердам міг коли-небудь, собі уявити, коли він розуміє, що його тато був убитий у результаті війни між кримінальними угрупованнями. Серед куплених поліцейських і корумпованих політичних діячів об'єкт його помсти Білл є всього лише ще однією фігурою в цій кривавій гангстерській війні.

Нью-Йорк, 1863. В диких трущобах міста «американської мрії» діє тільки один закон - закон сили. Тут йде у хід будь-яка зброя, ніхто не рахує втрат і не оплакує загиблих. В одній з жорстоких сутичок від рук ватажка «корінних американців» - М'ясника Білла (Деніел Дей-Льюіс) гине ватажок банди «ірландців» Веллон.
Його син Амстердам (Леонардо Дікапріо) надовго потрапляє у виправну школу, затамувавши ненависть на М'ясника, що став господарем навколишніх кварталів. Через роки не впізнаний ніким Амстердам повернеться на рідні вулиці з єдиною метою - помститися вбивці батька ...


Тривалість: 02:46:34
Якість: Remux
Відео:
кодек:
розмір кадру: 1920 х 1080
бітрейт: 22,1 Mб/с

Аудіо # 1:
мова: українська | ІНТЕР
переклад: багатоголосий закадровий
кодек: 2.0
бітрейт: 192 кб/с

Аудіо # 2:
мова: українська | ICTV & 1+1
переклад: двоголосий закадровий
кодек: 2.0
бітрейт: 192 кб/с

Аудіо # 3:
мова: англійська
переклад: оригінал
кодек: -HD MA 5.1
бітрейт: 4118 кб/с

Аудіо # 4:
мова: англійська
переклад: коментарі режисера
кодек: 2.0
бітрейт: 192 кб/с

Субтитри:
мова: англійська
тип: програмні (м'які)
формат: *.srt
Info
General
Unique ID : 43534095050848186220952414501421892226 (0x20C05C9A139E554A0908B39D5E5EC282)
Complete name : D:\Films\Банди Нью-Йорка Gangs of New York (2002) [Remastered] Remux 1080p 2xUkrEng Sub Eng[Hurtom].
Format :
Format version : Version 4 / Version 2
File size : 31.1 GiB
Duration : 2 h 46 min
Overall bit rate mode : Variable
Overall bit rate : 26.8 Mb/s
Encoded date : UTC 2018-04-06 12:06:00
Writing application : v22.0.0 ('At The End Of The World') 64-bit
Writing library : libebml v1.3.5 + v1.4.8

Video
ID : 1
Format : AVC
Format/Info : Advanced Video Codec
Format profile : [email protected]
Format settings : CABAC / 4 Ref Frames
Format settings, CABAC : Yes
Format settings, ReFrames : 4 frames
Codec ID : V_MPEG4/ISO/AVC
Duration : 2 h 46 min
Bit rate mode : Variable
Bit rate : 22.1 Mb/s
Maximum bit rate : 38.0 Mb/s
Width : 1 920 pixels
Height : 1 080 pixels
Display aspect ratio : 16:9
Frame rate mode : Constant
Frame rate : 23.976 (24000/1001) FPS
Color space : YUV
Chroma subsampling : 4:2:0
Bit depth : 8 bits
Scan type : Progressive
Bits/(Pixel*Frame) : 0.444
Stream size : 25.7 GiB (82%)
Language : English
Default : Yes
Forced : No
Color range : Limited
Color primaries : BT.709
Transfer characteristics : BT.709
Matrix coefficients : BT.709

Audio #1
ID : 2
Format : AC-3
Format/Info : Audio Coding 3
Codec ID : A_AC3
Duration : 2 h 46 min
Bit rate mode : Constant
Bit rate : 192 kb/s
Channel(s) : 2 channels
Channel positions : Front: L R
Sampling rate : 48.0 kHz
Frame rate : 31.250 FPS (1536 SPF)
Bit depth : 16 bits
Compression mode : Lossy
Stream size : 229 MiB (1%)
Title : багатоголосий закадровий 2.0 192 кб/с ІНТЕР
Language : Ukrainian
Service kind : Complete Main
Default : Yes
Forced : No

Audio #2
ID : 3
Format : AC-3
Format/Info : Audio Coding 3
Codec ID : A_AC3
Duration : 2 h 46 min
Bit rate mode : Constant
Bit rate : 192 kb/s
Channel(s) : 2 channels
Channel positions : Front: L R
Sampling rate : 48.0 kHz
Frame rate : 31.250 FPS (1536 SPF)
Bit depth : 16 bits
Compression mode : Lossy
Stream size : 229 MiB (1%)
Title : двоголосий закадровий 2.0 192 кб/с 1+1, ICTV
Language : Ukrainian
Service kind : Complete Main
Default : No
Forced : No

Audio #3
ID : 4
Format :
Format/Info : Digital Theater Systems
Format profile : MA / Core
Codec ID : A_DTS
Duration : 2 h 46 min
Bit rate mode : Variable / Constant
Bit rate : 4 118 kb/s / 1 509 kb/s
Channel(s) : 6 channels
Channel positions : Front: L C R, Side: L R, LFE
Sampling rate : 48.0 kHz
Frame rate : 93.750 FPS (512 SPF)
Bit depth : 24 bits
Compression mode : Lossless / Lossy
Stream size : 4.79 GiB (15%)
Title : -HD Master Audio, 5.1, 4118 kbps, 24 bit, Lossless (1536 kbps core)
Language : English
Default : No
Forced : No

Audio #4
ID : 5
Format : AC-3
Format/Info : Audio Coding 3
Codec ID : A_AC3
Duration : 2 h 46 min
Bit rate mode : Constant
Bit rate : 192 kb/s
Channel(s) : 2 channels
Channel positions : Front: L R
Sampling rate : 48.0 kHz
Frame rate : 31.250 FPS (1536 SPF)
Bit depth : 16 bits
Compression mode : Lossy
Stream size : 229 MiB (1%)
Title : Commentary with Director Martin Scorsese 2.0 192 kbps
Language : English
Service kind : Complete Main
Default : No
Forced : No

Text
ID : 6
Format : UTF-8
Codec ID : S_TEXT/UTF8
Codec ID/Info : UTF-8 Plain Text
Duration : 2 h 36 min
Bit rate : 46 b/s
Count of elements : 1743
Stream size : 53.2 KiB (0%)
Language : English
Default : No
Forced : No

Menu
00:00:00.000 : en:Battle of the Five Points
00:15:05.321 : en:A City in Turmoil
00:23:36.457 : en:The Gangs
00:27:42.160 : en:Fighting Over Fires
00:33:19.164 : en:Bill's Tribute
00:38:42.195 : en:"A Couple of Fidlam Bens"
00:45:58.422 : en:My Medal
00:52:46.830 : en:The Butcher's Lesson
01:01:38.862 : en:The Queen of the Dance
01:10:29.809 : en:Under the Dragon's Wing
01:20:44.631 : en:"I'll Bite You"
01:25:13.150 : en:"Civilization Is Crumbling"
01:33:23.097 : en:Betrayal
01:36:43.423 : en:"This Is a Night for Americans!"
01:43:20.611 : en:Spared by the Butcher
01:47:37.493 : en:Regaining a Full Heart
01:54:25.525 : en:"Old Uncle Jack"
02:00:58.543 : en:"Just Kill Me"
02:07:00.947 : en:Sheriff Monk
02:12:27.439 : en:Notch 45
02:18:03.609 : en:Setting Terms
02:22:59.738 : en:Mob Rule
02:29:22.245 : en:A True American
02:37:53.381 : en:End Credits
Скріншоти




Подяки за український звук: karvai0, ratbol, xslim (1+1), Arsenfpu, krigg070 (Інтер), за український постер - mrdavis

Джерело: &
Особиста оцінка: 10 - без зайвих вагань рекомендую всім!


Золотий реліз (завантажене не впливає на рейтинг)
 Трекер:    Зареєстрований   

Завантажити / скачати фільм українською



відео для новачків



 Зареєстрований:   2018-04-11 18:38
 Розмір:   31.15 GB 
 Оцінка фільму:   9.9/10 (Голосів: 8)
   
DISS2 
Новенький


З нами з: 11.01.15
Востаннє: 17.09.20
Повідомлень: 7

2018-11-24 16:33  
Допоможіть завантажити будь ласка. Станьте хтось на роздачу
Ваш часовий пояс: GMT + 2 Години

Нова тема   Відповісти