Як позбутися хлопця за 10 днів / How to Lose a Guy in 10 Days (2003) 1080p 2xUkr/Eng | sub Eng

Нові коментарі

Нова тема   Відповісти
Автор Повідомлення
staf777 
Відео Гуртом - підтримка та поширення
Відео Гуртом - підтримка та поширення


З нами з: 16.11.16
Востаннє: 19.05.19
Повідомлень: 2356

2018-04-10 20:39  
Як позбутися хлопця за 10 днів / How to Lose a Guy in 10 Days (2003) 1080p 2xUkr/Eng | sub Eng

Як позбутися хлопця за 10 днів / How to Lose a Guy in 10 Days (2003) 1080p 2xUkr/Eng | sub Eng


Жанр: комедія, романтичний
Країна: США



Кінокомпанія: Lynda Obst Productions, MMP Verwaltungsgesellschaft mbH, Moviemakers Productions
Режисер: Дональд Петрі
Актори: Кейт Хадсон / Kate Hudson, Меттью МакКонахі / Matthew McConaughey, Кетрін Хан, Анні Парісс, Адам Голдберг, Томас Леннон, Мішель Мішель, Шалом Харлов, Роберт Клейн, Бебе Нойвірт

Сюжет:
Журналістка Енді Андерсон з журналу отримує досить незвичайне редакційне завдання, яке до того ж треба зробити дуже швидко. Вона мусить написати статтю про те, що вигадують жінки для того, щоб звільнитися від чоловіка, коли вони його більше не хочуть бачити поруч. На все про все в неї тільки 10 днів, через які матеріал повинен лежати на столі головного редактора. Їй необхідно знайти в натовпі хлопця, закохати в себе, а потім вчинити всі класичні викрутаси примхливої красуні. На біду Енді, її вибір припав на молодого рекламного агента Бенджаміна Беррі, який сам якраз уклав зі своїм босом парі, що він зможе закохати в себе дівчину за 10 днів. Чи може таке дивне знайомство, засноване на авантюрі і замішане на брехні, привести до взаємності?


Тривалість: 01:55:28
Якість: 1080p
Відео:
кодек:
розмір кадру: 1920x1080
бітрейт: 12.5 Mб/с

Аудіо # 1:
мова: українська
переклад: багатоголосий закадровий
кодек: 2.0
бітрейт: 192 кб/с

Аудіо # 2:
мова: українська
переклад: багатоголосий закадровий
кодек: 2.0
бітрейт: 192 кб/с

Аудіо # 3:
мова: англійська
переклад: оригінал
кодек: 5.1
бітрейт: 640 кб/с

Субтитри:
мова: англійська
тип: програмні (м'які)
формат: *.srt
Info
General
Unique ID : 189442534367163663778111575001446447949 (0x8E854E125F346FB8A0F0E5A1484F7B4D)
Complete name : H:\RELIZI\How to Lose a Guy in 10 Days (2003) 1080p [2xUkr Eng][Sub Eng][Hurtom].
Format :
Format version : Version 4 / Version 2
File size : 10.9 GiB
Duration : 1 h 55 min
Overall bit rate : 13.5 Mb/s
Movie name : How to Lose a Guy in 10 Days (2003) 1080p [2xUkr Eng][Sub Eng][Hurtom]
Encoded date : UTC 2018-04-10 16:39:25
Writing application : v9.8.0 ('Kuglblids') 64bit
Writing library : libebml v1.3.4 + v1.4.5
Cover : Yes
Attachments : cover.jpg

Video
ID : 1
Format : AVC
Format/Info : Advanced Video Codec
Format profile : [email protected]
Format settings : CABAC / 4 Ref Frames
Format settings, CABAC : Yes
Format settings, ReFrames : 4 frames
Codec ID : V_MPEG4/ISO/AVC
Duration : 1 h 55 min
Bit rate : 12.5 Mb/s
Width : 1 920 pixels
Height : 1 080 pixels
Display aspect ratio : 16:9
Frame rate mode : Constant
Frame rate : 23.976 (24000/1001) FPS
Color space : YUV
Chroma subsampling : 4:2:0
Bit depth : 8 bits
Scan type : Progressive
Bits/(Pixel*Frame) : 0.251
Stream size : 10.1 GiB (92%)
Writing library : core 130 r2273 b3065e6
Encoding settings : cabac=1 / ref=4 / deblock=1:-1:-1 / analyse=0x3:0x113 / me=umh / subme=9 / psy=1 / psy_rd=1.00:0.15 / mixed_ref=1 / me_range=24 / chroma_me=1 / trellis=2 / 8x8dct=1 / cqm=0 / deadzone=21,11 / fast_pskip=1 / chroma_qp_offset=-3 / threads=6 / lookahead_threads=1 / sliced_threads=0 / nr=0 / decimate=1 / interlaced=0 / bluray_compat=0 / constrained_intra=0 / bframes=8 / b_pyramid=2 / b_adapt=2 / b_bias=0 / direct=1 / weightb=0 / open_gop=0 / weightp=2 / keyint=230 / keyint_min=23 / scenecut=40 / intra_refresh=0 / rc=crf / mbtree=0 / crf=20.5 / qcomp=0.60 / qpmin=0 / qpmax=69 / qpstep=4 / ip_ratio=1.40 / pb_ratio=1.30 / aq=1:1.00
Language : English
Default : Yes
Forced : No

Audio #1
ID : 2
Format : AC-3
Format/Info : Audio Coding 3
Codec ID : A_AC3
Duration : 1 h 55 min
Bit rate mode : Constant
Bit rate : 192 kb/s
Channel(s) : 2 channels
Channel positions : Front: L R
Sampling rate : 48.0 kHz
Frame rate : 31.250 FPS (1536 SPF)
Bit depth : 16 bits
Compression mode : Lossy
Stream size : 159 MiB (1%)
Title : [UA-MVO-NEW CANAL]
Language : Ukrainian
Service kind : Complete Main
Default : Yes
Forced : Yes

Audio #2
ID : 3
Format : AC-3
Format/Info : Audio Coding 3
Codec ID : A_AC3
Duration : 1 h 55 min
Bit rate mode : Constant
Bit rate : 192 kb/s
Channel(s) : 2 channels
Channel positions : Front: L R
Sampling rate : 48.0 kHz
Frame rate : 31.250 FPS (1536 SPF)
Bit depth : 16 bits
Compression mode : Lossy
Stream size : 159 MiB (1%)
Title : [UA-MVO-K1]
Language : Ukrainian
Service kind : Complete Main
Default : No
Forced : No

Audio #3
ID : 4
Format : AC-3
Format/Info : Audio Coding 3
Codec ID : A_AC3
Duration : 1 h 55 min
Bit rate mode : Constant
Bit rate : 640 kb/s
Channel(s) : 6 channels
Channel positions : Front: L C R, Side: L R, LFE
Sampling rate : 48.0 kHz
Frame rate : 31.250 FPS (1536 SPF)
Bit depth : 16 bits
Compression mode : Lossy
Stream size : 529 MiB (5%)
Language : English
Service kind : Complete Main
Default : No
Forced : No

Text
ID : 5
Format : UTF-8
Codec ID : S_TEXT/UTF8
Codec ID/Info : UTF-8 Plain Text
Duration : 1 h 49 min
Bit rate : 76 b/s
Count of elements : 1706
Stream size : 61.7 KiB (0%)
Language : English
Default : No
Forced : No
Скріншоти



Запис з Нового Bohdan237 Синхронізація Arsenfpu
Запис з каналу К1 РОМЕО Синхронізація Arsenfpu

Джерело: &
Особиста оцінка: 8 - мені сподобалося


Срібний реліз (на рейтинг впливає 50% завантаженого)
 Трекер:    Зареєстрований   

Завантажити / скачати фільм українською



відео для новачків



 Зареєстрований:   2018-04-10 20:39
 Розмір:   10.89 GB 
 Оцінка фільму:   7.3/10 (Голосів: 7)
   
11FrYkT 
Модератор відео


З нами з: 20.02.11
Востаннє: 20.05.19
Повідомлень: 5903

2018-04-10 20:53  
staf777 написано:

Аудіо # 1:
мова: українська
переклад: багатоголосий закадровий
бітрейт: 192 кб/с

Аудіо # 2:
мова: українська
переклад: багатоголосий закадровий
бітрейт: 192 кб/с

Аудіо # 3:
мова: англійська
переклад: оригінал
бітрейт: 640 кб/с

кодеки

staf777 
Відео Гуртом - підтримка та поширення
Відео Гуртом - підтримка та поширення


З нами з: 16.11.16
Востаннє: 19.05.19
Повідомлень: 2356

2018-04-10 21:22  
11FrYkT
Вибачаюсь провтикав

Ваш часовий пояс: GMT + 2 Години

Нова тема   Відповісти