Зоотрополіс / Zootopia (2016) 1080p H.265 Ukr/Eng | Sub Ukr/Eng

Нові коментарі

Нова тема   Відповісти
Автор Повідомлення
Anonymous 







2018-04-10 15:24  
Зоотрополіс / Zootopia (2016) 1080p H.265 Ukr/Eng | Sub Ukr/Eng

Зоотрополіс / Zootopia (2016) 1080p H.265 Ukr/Eng | Sub Ukr/Eng

Жанр: анімація, екшн, пригодницький
Країна: США



Кінокомпанія: Walt Disney Pictures, Walt Disney Animation Studios
Режисер: Байрон Говард, Річ Мур, Джаред Буш
Актори: Джінніфер Гудвін, Джейсон Бейтмен, Ідріс Ельба, Дженні Слейт, Нейт Торренс, Бонні Гант, Дон Лейк, Томмі Чонґ, Дж.К. Сіммонс, Октавія Спенсер, Алан Тьюдік, Шакіра

Сюжет:
Ласкаво просимо у Зоотрополіс - сучасне місто, яке населяють найрізноманітніші тварини, від величезних слонів до крихітних мишок. Зоотрополіс розділений на райони, що повністю повторюють природне місце існування різних жителів. У цьому місті з'являється новий офіцер поліції, життєрадісна зайчиха Джуді Гоппс, яка з перших днів роботи розуміє, як складно бути маленькою і пухнастою серед великих і сильних поліцейських. Джуді хапається за першу ж можливість проявити себе, не дивлячись на те, що її партнером буде балакучий хитрий лис Нік Вайлд. Удвох їм доведеться розкрити складну справу, від якої буде залежати доля всіх мешканців Зоотрополісу.


Тривалість: 01:48:44
Якість:
Відео:
кодек: H.265 (HEVC)
розмір кадру: 1920 х 804
бітрейт: 5 331 кб/с
бітова глибина: 8 біт
Увага! Перед завантаженням переконайтесь, що ваш пристрій відтворення (та/або ПЗ) підтримують H.265 (HEVC) та 10 біт

Аудіо # 1:
мова: українська
переклад: професійний дубльований
кодек: 5.1
бітрейт: 448 кб/с

Аудіо # 2:
мова: англійська
переклад: оригінал
кодек: 5.1
бітрейт: 448 кб/с

Субтитри # 1:
мова: українська | by Gedet
тип: програмні (м'які)
формат: *.

Субтитри # 2:
мова: англійська (повні, SDH, SDH-Colored)
тип: програмні (м'які)
формат: *.srt
Info
General
Unique ID : 289646690012886418260750432940484394500 (0xD9E7EC613ED04F9438E42D46A622FE04)
Complete name : E:\video\Zootopia (2016) 1080p H.265 [UKR_ENG].
Format :
Format version : Version 4 / Version 2
File size : 4.73 GiB
Duration : 1 h 48 min
Overall bit rate : 6 228 kb/s
Encoded date : UTC 2018-04-07 08:39:08
Writing application : v22.0.0 ('At The End Of The World') 64-bit
Writing library : libebml v1.3.5 + v1.4.8

Video
ID : 1
Format : HEVC
Format/Info : High Efficiency Video Coding
Format profile : [email protected]@High
Codec ID : V_MPEGH/ISO/HEVC
Duration : 1 h 48 min
Bit rate : 5 331 kb/s
Width : 1 920 pixels
Height : 804 pixels
Display aspect ratio : 2.40:1
Frame rate mode : Variable
Frame rate : 23.976 FPS
Color space : YUV
Chroma subsampling : 4:2:0
Bit depth : 8 bits
Bits/(Pixel*Frame) : 0.144
Stream size : 4.05 GiB (86%)
Writing library : x265 2.0+12-49a0d1176aef:[Windows][GCC 5.3.0][64 bit] 8bit
Encoding settings : wpp / ctu=64 / min-cu-size=8 / max-tu-size=32 / tu-intra-depth=1 / tu-inter-depth=1 / me=3 / subme=6 / merange=92 / no-rect / no-amp / max-merge=2 / temporal-mvp / no-early-skip / rskip / rdpenalty=0 / no-tskip / no-tskip-fast / strong-intra-smoothing / no-lossless / no-cu-lossless / no-constrained-intra / no-fast-intra / open-gop / no-temporal-layers / interlace=0 / keyint=230 / min-keyint=23 / scenecut=40 / rc-lookahead=60 / lookahead-slices=5 / bframes=10 / bframe-bias=0 / b-adapt=2 / ref=6 / limit-refs=3 / no-limit-modes / weightp / weightb / aq-mode=1 / qg-size=32 / aq-strength=1.00 / cbqpoffs=0 / crqpoffs=0 / rd=3 / psy-rd=2.00 / rdoq-level=0 / psy-rdoq=0.00 / no-rd-refine / signhide / deblock=-4:-4 / sao / no-sao-non-deblock / b-pyramid / cutree / no-intra-refresh / rc=crf / crf=17.5 / qcomp=0.60 / qpmin=0 / qpmax=69 / qpstep=4 / vbv-maxrate=50000 / vbv-bufsize=50000 / crf-max=18.0 / ipratio=1.40 / pbratio=1.30
Default : Yes
Forced : No

Audio #1
ID : 2
Format : AC-3
Format/Info : Audio Coding 3
Codec ID : A_AC3
Duration : 1 h 48 min
Bit rate mode : Constant
Bit rate : 448 kb/s
Channel(s) : 6 channels
Channel positions : Front: L C R, Side: L R, LFE
Sampling rate : 48.0 kHz
Frame rate : 31.250 FPS (1536 SPF)
Bit depth : 16 bits
Compression mode : Lossy
Stream size : 348 MiB (7%)
Title : 5.1 @ 448 Kbps - UKR (Dub) | «LeDoyen Studio» - Disney
Language : Ukrainian
Service kind : Complete Main
Default : Yes
Forced : Yes

Audio #2
ID : 3
Format : AC-3
Format/Info : Audio Coding 3
Codec ID : A_AC3
Duration : 1 h 48 min
Bit rate mode : Constant
Bit rate : 448 kb/s
Channel(s) : 6 channels
Channel positions : Front: L C R, Side: L R, LFE
Sampling rate : 48.0 kHz
Frame rate : 31.250 FPS (1536 SPF)
Bit depth : 16 bits
Compression mode : Lossy
Stream size : 348 MiB (7%)
Title : 5.1 @ 448 Kbps - ENG (Original)
Language : English
Service kind : Complete Main
Default : No
Forced : No

Text #1
ID : 4
Format :
Codec ID : S_TEXT/
Codec ID/Info : Advanced Sub Station Alpha
Duration : 1 h 35 min
Bit rate : 183 b/s
Count of elements : 1407
Compression mode : Lossless
Stream size : 128 KiB (0%)
Title : Full @ Translated by Gedet (Hurtom)
Language : Ukrainian
Default : No
Forced : No

Text #2
ID : 5
Format : UTF-8
Codec ID : S_TEXT/UTF8
Codec ID/Info : UTF-8 Plain Text
Duration : 1 h 39 min
Bit rate : 77 b/s
Count of elements : 2015
Stream size : 56.5 KiB (0%)
Title : Full
Language : English
Default : No
Forced : No

Text #3
ID : 6
Format : UTF-8
Codec ID : S_TEXT/UTF8
Codec ID/Info : UTF-8 Plain Text
Duration : 1 h 46 min
Bit rate : 82 b/s
Count of elements : 2296
Stream size : 64.3 KiB (0%)
Title : SDH
Language : English
Default : No
Forced : No

Text #4
ID : 7
Format : UTF-8
Codec ID : S_TEXT/UTF8
Codec ID/Info : UTF-8 Plain Text
Duration : 1 h 47 min
Bit rate : 108 b/s
Count of elements : 2286
Stream size : 85.5 KiB (0%)
Title : SDH-Colored
Language : English
Default : No
Forced : No

Menu
00:00:00.000 : en:Chapter 01
00:00:59.559 : en:Chapter 02
00:05:50.099 : en:Chapter 03
00:10:05.563 : en:Chapter 04
00:14:31.537 : en:Chapter 05
00:18:24.019 : en:Chapter 06
00:26:03.353 : en:Chapter 07
00:30:57.438 : en:Chapter 08
00:37:07.099 : en:Chapter 09
00:40:43.441 : en:Chapter 10
00:44:31.752 : en:Chapter 11
00:51:40.430 : en:Chapter 12
00:55:40.378 : en:Chapter 13
01:00:48.269 : en:Chapter 14
01:03:37.855 : en:Chapter 15
01:09:19.822 : en:Chapter 16
01:13:39.164 : en:Chapter 17
01:17:07.372 : en:Chapter 18
01:21:52.365 : en:Chapter 19
01:28:19.168 : en:Chapter 20
01:32:43.432 : en:Chapter 21
01:36:12.141 : en:Chapter 22
Скріншоти



Джерело:
Особиста оцінка: 10 - без зайвих вагань рекомендую всім!


 Трекер:    Зареєстрований   

Завантажити / скачати мультфільм українською



відео для новачків



 Зареєстрований:   2018-04-10 15:24
 Розмір:   4.73 GB 
 Оцінка мультфільму:   9.4/10 (Голосів: 33)
   
Інші релізи
   Зоотрополіс / Zootopia (2016) UHD Remux 4K 2160p HDR H.265 Ukr/Eng | Sub Ukr/Eng RoMeL  17 / 1   44.04 GB   2020-08-08 19:54 
   Зоотрополіс / Zootopia (2016) 1080p H.265 Ukr/Eng | Sub Ukr/Eng -Star-Lord-  19 / 0   6.14 GB   2019-02-20 20:43 
   Зоотрополіс / Zootopia (2016) AVC Ukr/Eng | Sub Ukr/Eng BASTERD-94  39 / 0   2.18 GB   2017-01-01 22:30 
   Зоотрополіс / Zootopia (2016) Ukr/Eng BASTERD-94  23 / 0   2.18 GB   2016-12-31 20:30 
   Зоотрополіс / Zootopia (2016) 720p-mini 60fps Ukr/Eng | Sub Ukr/Eng SilentBoss  5 / 0   4.12 GB   2016-08-15 18:44 
   Зоотрополіс / Zootopia (2016) Remux 1080p Ukr/Eng | Sub Ukr/Eng 11FrYkT  7 / 1   26.41 GB   2016-06-30 19:54 
   Зоотрополіс / Zootopia (2016) AVC Nikson  11 / 1   2.01 GB   2016-06-27 18:06 
   Зоотрополіс / Zootopia (2016) 1080p 3D [HalfOverUnder] Ukr/Eng | Sub Ukr/Eng -VipeR-  3 / 0   8.84 GB   2016-06-27 10:11 
   Зоотрополіс / Zootopia (2016) 720p Ukr/Eng | Sub Ukr/Eng Hanway  33 / 0   3.51 GB   2016-06-26 18:24 
   Зоотрополіс / Zootopia (2016) 1080p Ukr/Eng | Sub Ukr/Eng Hanway  34 / 0   8.38 GB   2016-06-26 17:06 
   Зоотрополіс / Zootopia (2016) Gelios  81 / 0   1.45 GB   2016-06-26 14:18 
Ваш часовий пояс: GMT + 2 Години

Нова тема   Відповісти