Двоє: Я та моя тінь / It Takes Two (1995) 1080p Ukr/Eng | Sub Eng

Нові коментарі

Нова тема   Відповісти
Автор Повідомлення
boroznaya 
Попереджень: 1
Попереджень: 1 


З нами з: 02.11.12
Востаннє: 09.12.18
Повідомлень: 2963

2018-04-09 12:10  
Двоє: Я та моя тінь / It Takes Two (1995) 1080p Ukr/Eng | Sub Eng

Двоє: Я та моя тінь / It Takes Two (1995) 1080p Ukr/Eng | Sub Eng


Жанр: комедія, сімейний, романтичний
Країна: США



Кінокомпанія: Rysher Entertainment
Режисер: Енді Теннант
Актори: Мері-Кейт Олсен, Ешлі Олсен, Керсті Еллі, Стів Ґуттенберґ, Філіп Боско, Джейн Сіббетт, Мішель Ґрісом, Десмонд Робертсон, Тайні Міллс, Шанелль Генрі, Ентоні Айелло, ЛаТоня Борсей

Сюжет:
У різних родинах у той самий час народжуються дві зовсім однакові дівчинки Аманда й Аліса. Одна живе в розкоші, інша - ні. У багачки немає мами, у бідної - без кінця міняються "татки". Один раз дівчиська випадково зустрічаються, починають дружити, і вирішують помінятися родинами, щоб звести разом два самотніх серця - опікунки Аманди й батька Аліси. Для здійснення своїх планів дівчата на час міняються місцями...


Тривалість: 01:40:53
Якість: 1080p [Amazon Video]
Відео:
кодек:
розмір кадру: 1920x1080
бітрейт: 14,2 Mб/с

Аудіо # 1:
мова: українська
переклад: багатоголосий закадровий
кодек: 2.0
бітрейт: 192 кб/с

Аудіо # 2:
мова: англійська
переклад: оригінал
кодек: 5.1
бітрейт: 640 кб/с

Джерело озвучення:


Субтитри:
мова: англійська
тип: програмні (м'які)
формат: *.srt
Info
D:\Завантаження\It Takes Two (1995) [Ukr, Eng, sub. Eng] 1080p [Hurtom].
General
Unique ID : 173213362030654970823576859222876507186 (0x824FAE191606863E3CAB6E49D3B24C32)
Complete name : D:\Завантаження\It Takes Two (1995) [Ukr, Eng, sub. Eng] 1080p [Hurtom].
Format :
Format version : Version 4 / Version 2
File size : 10.8 GiB
Duration : 1h 40mn
Overall bit rate mode : Variable
Overall bit rate : 15.3 Mbps
Encoded date : UTC 2018-04-09 09:22:06
Writing application : v20.0.0 ('I Am The Sun') 64-bit
Writing library : libebml v1.3.5 + v1.4.8
DURATION : 01:40:52.128000000
NUMBER_OF_FRAMES : 189129
NUMBER_OF_BYTES : 145251072
_STATISTICS_WRITING_APP : v20.0.0 ('I Am The Sun') 64-bit
_STATISTICS_WRITING_DATE_UTC : 2018-04-09 09:22:06
_STATISTICS_TAGS : BPS DURATION NUMBER_OF_FRAMES NUMBER_OF_BYTES

Video #1
ID : 1
Format : AVC
Format/Info : Advanced Video Codec
Format profile : [email protected]
Format settings, CABAC : Yes
Format settings, ReFrames : 4 frames
Codec ID : V_MPEG4/ISO/AVC
Duration : 1h 40mn
Bit rate mode : Variable
Bit rate : 14.2 Mbps
Maximum bit rate : 15.0 Mbps
Width : 1 920 pixels
Height : 1 080 pixels
Display aspect ratio : 16:9
Frame rate : 23.976 fps
Color space : YUV
Chroma subsampling : 4:2:0
Bit depth : 8 bits
Scan type : Progressive
Bits/(Pixel*Frame) : 0.285
Stream size : 9.98 GiB (93%)
Title : Zhuk_Mikola
Language : English
Default : Yes
Forced : No
Color primaries : BT.709-5, BT.1361, IEC 61966-2-4, SMPTE RP177
Transfer characteristics : BT.709-5, BT.1361
Matrix coefficients : BT.709-5, BT.1361, IEC 61966-2-4 709, SMPTE RP177

Audio #2
ID : 2
Format : AC-3
Format/Info : Audio Coding 3
Mode extension : CM (complete main)
Codec ID : A_AC3
Duration : 1h 40mn
Bit rate mode : Constant
Bit rate : 192 Kbps
Channel(s) : 2 channels
Channel positions : Front: L R
Sampling rate : 48.0 KHz
Bit depth : 16 bits
Compression mode : Lossy
Stream size : 139 MiB (1%)
Title : Багатоголосий закадровий, Новий канал
Language : Ukrainian
Default : Yes
Forced : No

Audio #3
ID : 3
Format : E-AC-3
Format/Info : Audio Coding 3
Codec ID : A_EAC3
Duration : 1h 40mn
Bit rate mode : Constant
Bit rate : 640 Kbps
Channel(s) : 6 channels
Channel positions : Front: L C R, Side: L R, LFE
Sampling rate : 48.0 KHz
Compression mode : Lossy
Stream size : 462 MiB (4%)
Language : English
Default : No
Forced : No

Text #4
ID : 4
Format : UTF-8
Codec ID : S_TEXT/UTF8
Codec ID/Info : UTF-8 Plain Text
Language : English
Default : No
Forced : No
Скріншоти






За постер подяка пану gig_Panas

Джерело: &
Особиста оцінка: 10 - без зайвих вагань рекомендую всім!


Срібний реліз (на рейтинг впливає 50% завантаженого)
 Трекер:    Зареєстрований   

Завантажити / скачати фільм українською



відео для новачків



 Зареєстрований:   2018-04-22 06:56
 Розмір:   10.78 GB 
 Оцінка фільму:   9/10 (Голосів: 9)
   
Інші релізи
   Двоє: Я та моя тінь / It takes two (1995) Sando7  3 / 0   1.45 GB   2014-12-16 18:18 
   Двоє: Я та моя тінь / It takes two (1995) Ukr/Eng Soyer  4 / 0   1.46 GB   2008-07-17 22:31 
mr. blef 
Частий відвідувач


З нами з: 26.02.18
Востаннє: 09.12.18
Повідомлень: 41

2018-04-10 17:11  
boroznaya, оце так сюрприз! Навіть не чекав на таке диво!
Улюблений фільм дитинства після стількох років очікування, нарешті в HD!
Стільки сайтів відвідав, і на жодному не зміг в такій якості відшукати! Респект!

IstH 
Новенький


З нами з: 27.10.13
Востаннє: 09.12.18
Повідомлень: 8

2018-04-10 20:24  
Гуттенберг вже назавжди сержант Магоні Happy
Mariscia 
Поважний учасник


З нами з: 14.01.16
Востаннє: 09.12.18
Повідомлень: 176

2018-04-10 21:02  
Божечки, це ж з дитинства кінчик!) Не чекала навіть отримати це рідною мовою... Дякую!
Patriot_ukr 
VIP


З нами з: 06.04.15
Востаннє: 10.12.18
Повідомлень: 2271

2018-04-10 21:38  
Mariscia, фільм є на толоці з 2008 -_-
Mariscia 
Поважний учасник


З нами з: 14.01.16
Востаннє: 09.12.18
Повідомлень: 176

2018-04-10 22:41  
Patriot_ukr
Невже?? Я навіть не думала його шукати, бо й думки такої не мала, що його можна ще знайти! Оце новина для мене, дякую! Цей анонс раптово побачила, не думала, що така стареча взагалі десь є)

-_-B_E_N_D_E_R-_- 
Забанено
Забанено


З нами з: 09.01.14
Востаннє: 22.05.18
Повідомлень: 902

2018-04-10 23:43  
Mariscia
Та цей фільм давним-давно транслювали на новому я ще досі памятаю його.

21jumpstreet 
VIP


З нами з: 03.07.12
Востаннє: 10.12.18
Повідомлень: 571

2018-04-10 23:53  
Наш прапорець на останньому скріні.
Mariscia 
Поважний учасник


З нами з: 14.01.16
Востаннє: 09.12.18
Повідомлень: 176

2018-04-11 10:00  
-_-B_E_N_D_E_R-_-
По телевізору я дивлюся тільки футбол і новини, тому для мене це стало справжнім відкриттям.

bot 
робот


З нами з: 30.09.07
Востаннє: 26.05.05
Повідомлень: 20324

2018-04-22 06:51  
Тему перенесено з Анонси релізів до форуму Фільми в HD


boroznaya

boroznaya 
Попереджень: 1
Попереджень: 1 


З нами з: 02.11.12
Востаннє: 09.12.18
Повідомлень: 2963

2018-04-22 07:00  
Фільм "Двоє: Я та моя тінь" на роздачі!
Всім приємного перегляду!

Mike88 
Новенький


З нами з: 21.10.08
Востаннє: 09.12.18
Повідомлень: 4

2018-10-02 17:52  
Роздайте, будь ласка!
Ваш часовий пояс: GMT + 2 Години

Нова тема   Відповісти