Формула 1. Сезон 2018. Етап 2. Гран-Прі Бахрейну. Гонка (08.04.2018) 720p 50fps Ukr/Eng

Нові коментарі

Нова тема   Відповісти
Автор Повідомлення
sergiyko.5 
VIP


З нами з: 25.02.16
Востаннє: 29.10.20
Повідомлень: 3667

2018-04-09 10:45  
Формула 1. Сезон 2018. Етап 2. Гран-Прі Бахрейну. Гонка (08.04.2018) 720p 50fps Ukr/Eng


Формула 1. Сезон 2018. Етап 2. Гран-Прі Бахрейну. Гонка (08.04.2018) 720p 50fps Ukr/Eng

Жанр: Перегони Формули 1
Країна: Бахрейн
Телеканал: Перший автомобільний, Sky Sport F1 HD
Коментатор: Максим Подзігун

Опис:
Гонка другого сезону Гран-Прі Бахрейну 2018 року.


Тривалість: 02:41:40
Якість:

Відео: кодек: розмір кадру: 1280 х 720 бітрейт: 3778 кб/с
Аудіо # 1: мова: українська (Перший автомобільний) кодек: 2.0 бітрейт: 192 кб/с
Аудіо # 2: мова: англійська (Sky Sport F1 HD) кодек: 5.1 бітрейт: 384 кб/с
Аудіо # 3: мова: англійська (Channel 4) кодек: 2.0 бітрейт: 192 кб/с
Аудіо # 4: інтершум кодек: 5.1 бітрейт: 448 кб/с
Про файл:
General
Unique ID : 197217822340003561599009965974314449498 (0x945EC55DB5AA54F73CC6ED9A41767A5A)
Complete name : D:\Torrents\SPORT\Formula 1\F1.2018.Race\F1.2018.02.Bahrain.Race.AVC.720p.50fps.
Format :
Format version : Version 4 / Version 2
File size : 5.64 GiB
Duration : 2 h 41 min
Overall bit rate : 4 998 kb/s
Encoded date : UTC 2018-04-09 08:36:50
Writing application : v22.0.0 ('At The End Of The World') 64-bit
Writing library : libebml v1.3.5 + v1.4.8

Video
ID : 1
Format : AVC
Format/Info : Advanced Video Codec
Format profile : [email protected]
Format settings, CABAC : Yes
Format settings, ReFrames : 4 frames
Codec ID : V_MPEG4/ISO/AVC
Duration : 2 h 41 min
Bit rate : 3 778 kb/s
Width : 1 280 pixels
Height : 720 pixels
Display aspect ratio : 16:9
Frame rate mode : Constant
Frame rate : 50.000 FPS
Color space : YUV
Chroma subsampling : 4:2:0
Bit depth : 8 bits
Scan type : Progressive
Bits/(Pixel*Frame) : 0.082
Stream size : 4.27 GiB (76%)
Writing library : core 148 r2705 3f5ed56
Encoding settings : cabac=1 / ref=3 / deblock=1:0:0 / analyse=0x3:0x113 / me=umh / subme=9 / psy=1 / psy_rd=1.00:0.00 / mixed_ref=1 / me_range=32 / chroma_me=1 / trellis=1 / 8x8dct=1 / cqm=0 / deadzone=21,11 / fast_pskip=1 / chroma_qp_offset=-2 / threads=18 / lookahead_threads=1 / sliced_threads=0 / nr=0 / decimate=1 / interlaced=0 / bluray_compat=0 / constrained_intra=0 / bframes=12 / b_pyramid=2 / b_adapt=1 / b_bias=0 / direct=1 / weightb=1 / open_gop=0 / weightp=2 / keyint=100 / keyint_min=10 / scenecut=40 / intra_refresh=0 / rc_lookahead=40 / rc=crf / mbtree=1 / crf=21.0 / qcomp=0.60 / qpmin=0 / qpmax=69 / qpstep=4 / vbv_maxrate=20000 / vbv_bufsize=25000 / crf_max=0.0 / nal_hrd=none / filler=0 / ip_ratio=1.40 / aq=1:1.00
Language : English
Default : Yes
Forced : No

Audio #1
ID : 2
Format : AC-3
Format/Info : Audio Coding 3
Mode extension : CM (complete main)
Format settings, Endianness : Big
Codec ID : A_AC3
Duration : 2 h 41 min
Bit rate mode : Constant
Bit rate : 192 kb/s
Channel(s) : 2 channels
Channel positions : Front: L R
Sampling rate : 48.0 kHz
Frame rate : 31.250 FPS (1536 spf)
Bit depth : 16 bits
Compression mode : Lossy
Delay relative to video : 100 ms
Stream size : 222 MiB (4%)
Title : 1 Auto | Максим Подзігун
Language : Ukrainian
Default : Yes
Forced : Yes

Audio #2
ID : 3
Format : AC-3
Format/Info : Audio Coding 3
Mode extension : CM (complete main)
Format settings, Endianness : Big
Codec ID : A_AC3
Duration : 2 h 41 min
Bit rate mode : Constant
Bit rate : 384 kb/s
Channel(s) : 6 channels
Channel positions : Front: L C R, Side: L R, LFE
Sampling rate : 48.0 kHz
Frame rate : 31.250 FPS (1536 spf)
Bit depth : 16 bits
Compression mode : Lossy
Delay relative to video : 100 ms
Stream size : 444 MiB (8%)
Title : SkySports F1
Language : English
Default : No
Forced : No

Audio #3
ID : 4
Format : AC-3
Format/Info : Audio Coding 3
Mode extension : CM (complete main)
Format settings, Endianness : Big
Codec ID : A_AC3
Duration : 2 h 41 min
Bit rate mode : Constant
Bit rate : 192 kb/s
Channel(s) : 2 channels
Channel positions : Front: L R
Sampling rate : 48.0 kHz
Frame rate : 31.250 FPS (1536 spf)
Bit depth : 16 bits
Compression mode : Lossy
Delay relative to video : 100 ms
Stream size : 222 MiB (4%)
Title : Channel 4
Language : English
Default : No
Forced : No

Audio #4
ID : 5
Format : AC-3
Format/Info : Audio Coding 3
Mode extension : CM (complete main)
Format settings, Endianness : Big
Codec ID : A_AC3
Duration : 2 h 41 min
Bit rate mode : Constant
Bit rate : 448 kb/s
Channel(s) : 6 channels
Channel positions : Front: L C R, Side: L R, LFE
Sampling rate : 48.0 kHz
Frame rate : 31.250 FPS (1536 spf)
Bit depth : 16 bits
Compression mode : Lossy
Delay relative to video : 100 ms
Stream size : 518 MiB (9%)
Title : Natural Sounds
Default : No
Forced : No
Скріншоти:


Автор запису/зведення: Shewa1


 Трекер:    Зареєстрований   

Завантажити / скачати торрент



відео для новачків



 Зареєстрований:   2018-04-09 10:45
 Розмір:   5.64 GB 
 Оцінка:   10/10 (Голосів: 15)
   
VicCob 
Свій


З нами з: 16.06.10
Востаннє: 25.10.20
Повідомлень: 58

2018-04-09 15:31  
Скажіть, будь ласка, чи буде якість FULL HD?
sergiyko.5 
VIP


З нами з: 25.02.16
Востаннє: 29.10.20
Повідомлень: 3667

2018-04-09 16:32  
VicCob написано:
Скажіть, будь ласка, чи буде якість FULL HD?

не буде.

VicCob 
Свій


З нами з: 16.06.10
Востаннє: 25.10.20
Повідомлень: 58

2018-04-09 19:28  
sergiyko.5

прикро

[email protected] 
Новенький


З нами з: 24.03.18
Востаннє: 25.10.20
Повідомлень: 1

2018-04-09 20:57  
Спасибо за картинку со Sky Sport! С ней очень круто!
PandaWCB 
Частий відвідувач


З нами з: 14.02.12
Востаннє: 29.10.20
Повідомлень: 34

2018-04-11 17:02  
Жанр: Перегони Формули 1
Країна: Австралія

???????

sergiyko.5 
VIP


З нами з: 25.02.16
Востаннє: 29.10.20
Повідомлень: 3667

2018-04-11 17:07  
PandaWCB написано:
???????


Ця дрібниця відбувається тоді коли релізер поспішає донести до бажаючих переглянути і копіює опис з минулого релізу. Вас це дуже бентежить? Чи ви отримали якісний контент?

PandaWCB 
Частий відвідувач


З нами з: 14.02.12
Востаннє: 29.10.20
Повідомлень: 34

2018-04-11 18:31  
sergiyko.5
Ну перша думка що контент не той. І тоді питання чи є сенс качати? Але так - Бахрейн. Дякую. Не треба ображатись. Просто звик читати маленькі букви на упаковці. Там часто більше інформації ніж на етикетці. Happy

sergiyko.5 
VIP


З нами з: 25.02.16
Востаннє: 29.10.20
Повідомлень: 3667

2018-04-11 18:47  
PandaWCB
Що знаходиться в релізові користувачі дивляться як найперше на заголовок, потім в "Список файлів завантаження", торент-файл, і там все було вказано вірно.


PandaWCB 
Частий відвідувач


З нами з: 14.02.12
Востаннє: 29.10.20
Повідомлень: 34

2018-04-11 18:57  
Не треба стільки зусиль. Happy Я все бачив. Але як людина яка ще з часів eDonkey, не раз скачувала MathCAD.CD.zip а всередині був Photoshop в кращому випадку я оце звик знаєте все читати. Happy
Ваш часовий пояс: GMT + 2 Години

Нова тема   Відповісти