Лист із країни собак / Aru Hi: Inu no Kuni kara Tegami ga Kite (2015) 480p

Нові коментарі

Нова тема   Відповісти
Автор Повідомлення
Amanogawa 
VIP


З нами з: 27.09.17
Востаннє: 24.02.20
Повідомлень: 621

2018-04-08 13:20  
Лист із країни собак / Aru Hi: Inu no Kuni kara Tegami ga Kite (2015) 480p


Жанр: шьоджьо, повсякденність, драма
Країна: Японія

Кінокомпанія: Shogakukan Music & Digital Entertainment
Режисер: Маруяма Юта
Автор оригінального твору: Тацуяма Саюрі
Ролі озвучують: Цуда Мінамі, Такетацу Аяна, Фуджі Йокійо та інші.

Сюжет:
В оригінальному романі та манзі-адаптації розповідається про листи від померлих собак своїм колишнім госодарям. Головний герой аніме-адаптації - пес Пі, чий хазяїн кинув його.

Тривалість: 00:11:24
Якість:
Відео:
кодек:
розмір кадру: 848 х 480
бітрейт: 1450 Кбіт/сек

Аудіо # 1:
мова: українська, двоголосе закадрове озвучування
кодек: VORBIS 2.0
бітрейт: ~256 kbps

Озвучування: Gwean та Yuki
Переклад: Gwean
Робота зі звуком: Gwean
Info
General
Unique ID : 171846229110795619112317072554775396935 (0x8148613DAEBBDB468542013F7709C247)
Complete name : R:\Aru Hi\Aru Hi - Inu no Kuni kara Tegami ga Kite OVA ( 480 VORBIS).
Format :
Format version : Version 4 / Version 2
File size : 137 MiB
Duration : 11 min 24 s
Overall bit rate mode : Variable
Overall bit rate : 1 685 kb/s
Encoded date : UTC 2018-04-01 19:34:34
Writing application : v7.0.0 ('Where We Going') 32bit built on Jun 9 2014 15:08:34
Writing library : libebml v1.3.0 + v1.4.1

Video
ID : 1
Format : AVC
Format/Info : Advanced Video Codec
Format profile : [email protected]L4.1
Format settings, CABAC : Yes
Format settings, ReFrames : 9 frames
Codec ID : V_MPEG4/ISO/AVC
Duration : 11 min 23 s
Bit rate : 1 450 kb/s
Width : 848 pixels
Height : 480 pixels
Display aspect ratio : 16:9
Frame rate mode : Constant
Frame rate : 23.976 (24000/1001) FPS
Color space : YUV
Chroma subsampling : 4:2:0
Bit depth : 8 bits
Scan type : Progressive
Bits/(Pixel*Frame) : 0.149
Stream size : 118 MiB (86%)
Writing library : core 125 r2208 d9d2288
Encoding settings : cabac=1 / ref=9 / deblock=1:1:1 / analyse=0x3:0x113 / me=umh / subme=10 / psy=1 / psy_rd=0.40:0.00 / mixed_ref=1 / me_range=24 / chroma_me=1 / trellis=2 / 8x8dct=1 / cqm=0 / deadzone=21,11 / fast_pskip=0 / chroma_qp_offset=-2 / threads=6 / lookahead_threads=1 / sliced_threads=0 / nr=0 / decimate=1 / interlaced=0 / bluray_compat=0 / constrained_intra=0 / bframes=6 / b_pyramid=2 / b_adapt=2 / b_bias=0 / direct=3 / weightb=1 / open_gop=0 / weightp=2 / keyint=250 / keyint_min=23 / scenecut=40 / intra_refresh=0 / rc_lookahead=120 / rc=2pass / mbtree=1 / bitrate=1450 / ratetol=1.0 / qcomp=0.70 / qpmin=0 / qpmax=51 / qpstep=4 / cplxblur=20.0 / qblur=0.5 / vbv_maxrate=50000 / vbv_bufsize=50000 / nal_hrd=none / ip_ratio=1.40 / aq=1:0.60
Language : Japanese
Default : Yes
Forced : Yes

Audio
ID : 2
Format : Vorbis
Format settings, Floor : 1
Codec ID : A_VORBIS
Duration : 11 min 24 s
Bit rate mode : Variable
Bit rate : 256 kb/s
Channel(s) : 2 channels
Sampling rate : 48.0 kHz
Frame rate : 102.470 FPS (468 spf)
Compression mode : Lossy
Stream size : 18.8 MiB (14%)
Title : двоголосий закадровий від Gwean та Uki
Writing application : REAPER
Writing library : libVorbis (Everywhere) (20100325 (Everywhere))
Language : Ukrainian
Default : Yes
Forced : Yes
Скріншоти









 Трекер:    Зареєстрований   

Завантажити / скачати аніме українською



відео для новачків



 Зареєстрований:   2018-04-08 13:20
 Розмір:   137 MB 
 Оцінка аніме:   9.6/10 (Голосів: 7)
   
IvXyntavi4 
Забанено
Забанено


З нами з: 20.05.15
Востаннє: 19.06.18
Повідомлень: 144

2018-04-08 19:51  
Нам дуже важливо проглянути цей мультик, бо в шкільну освіту, з цілью виховання патріотичного духу, незабаром, буде введена програма з написання листа померлому герою України. Чекаємо роздачі.
EvGaS 
Відео Гуртом - субтитрування
Відео Гуртом - субтитрування


З нами з: 27.02.12
Востаннє: 31.07.19
Повідомлень: 5672

2018-04-09 04:48  
IvXyntavi4, ви хоча б колись тверезим на форум заходите?
IvXyntavi4 
Забанено
Забанено


З нами з: 20.05.15
Востаннє: 19.06.18
Повідомлень: 144

2018-04-24 00:40  
Цитата:
ви хоча б колись тверезим на форум заходите?

Можна мати друга (Віктор Янукович) і подругу брата (Надія Савченко) тільки оцю язву не слід обирати...

Dzuski.com 
Поважний учасник


З нами з: 08.09.19
Востаннє: 24.02.20
Повідомлень: 154

2019-09-28 00:31  
Душевна історія.
Ваш часовий пояс: GMT + 2 Години

Нова тема   Відповісти