Лепрекон 2 / Leprechaun 2 (1994) 1080p 2xUkr/Eng | Sub Eng

Нові коментарі

Нова тема   Відповісти
Останній раз роздавалося foralreg (2020-07-16)
Автор Повідомлення
boroznaya 
Попереджень: 1
Попереджень: 1 


З нами з: 02.11.12
Востаннє: 16.09.20
Повідомлень: 2938

2018-04-08 14:08  
Лепрекон 2 / Leprechaun 2 (1994) 1080p 2xUkr/Eng | Sub Eng

Лепрекон 2 / Leprechaun 2 (1994) 1080p 2xUkr/Eng | Sub Eng


Жанр: комедія, фентезі, жахи
Країна: США



Кінокомпанія: Trimark Pictures
Режисер: Марк Джоунс
Актори: Ворвік Девіс, Чарлі Хіт, Шевонн Дуркін, Сенді Барон, Адам Біск, Джеймс Ланкастер, Лінда Хопкінс, Артуро Ґіл, Кіммі Робертсон, Клінт Говард, Ендрю Крейґ, Девід Повледж, Біллі Бек, Аль-Вайт, Марта Хакетт

Сюжет:
Час лікує рани, але не стирає образи. Злий і кровожерний гном Лепрекон, зберігач підземних запасів золота, його не беруть ні куля, ні вогонь, ні отрута, знову виходить із підземелля і в пошуках спадкоємця свого заклятого ворога продовжує смертельну жнива, знищуючи всіх, хто робить замах на належні йому, Лепрекон, скарби.
Нехай і пройшла тисяча років після нанесеня Лепрекону образи - він нічого і ніколи не прощає! .. До того ж він тепер одержимий ще однією мрією: Лепрекон хоче одружитися, і в пошуках нареченої карлик-вбивця не зупиняється ні перед чим...


Тривалість: 01:25:23
Якість: 1080p
Відео:
кодек:
розмір кадру: 1920x1080
бітрейт: 12 Мб/с

Аудіо # 1:
мова: українська
переклад: двоголосий закадровий
кодек: 2.0
бітрейт: 192 кб/с

Аудіо # 2:
мова: українська
переклад: двоголосий закадровий
кодек: 2.0
бітрейт: 192 кб/с

Аудіо # 3:
мова: англійська
переклад: оригінал
кодек: 2.0
бітрейт: 640 кб/с

Субтитри:
мова: англійська
тип: програмні (м'які)
формат: *.srt
Info
D:\Завантаження\Leprechaun 2 (1994) [2xUkr, Eng, sub. Eng] 1080p [Hurtom].
General
Unique ID : 29856427013981295437610145900999248543 (0x16762380A795CF98FCA6DDD19F4C8A9F)
Complete name : D:\Завантаження\Leprechaun 2 (1994) [2xUkr, Eng, sub. Eng] 1080p [Hurtom].
Format :
Format version : Version 4 / Version 2
File size : 7.77 GiB
Duration : 1h 25mn
Overall bit rate : 13.0 Mbps
Encoded date : UTC 2018-04-08 09:27:49
Writing application : v20.0.0 ('I Am The Sun') 64-bit
Writing library : libebml v1.3.5 + v1.4.8
DURATION : 01:25:23.840000000
NUMBER_OF_FRAMES : 160120
NUMBER_OF_BYTES : 122972160
_STATISTICS_WRITING_APP : v20.0.0 ('I Am The Sun') 64-bit
_STATISTICS_WRITING_DATE_UTC : 2018-04-08 09:27:49
_STATISTICS_TAGS : BPS DURATION NUMBER_OF_FRAMES NUMBER_OF_BYTES

Video #1
ID : 1
Format : AVC
Format/Info : Advanced Video Codec
Format profile : [email protected]
Format settings, CABAC : Yes
Format settings, ReFrames : 3 frames
Codec ID : V_MPEG4/ISO/AVC
Duration : 1h 25mn
Bit rate : 12.0 Mbps
Width : 1 920 pixels
Height : 1 080 pixels
Display aspect ratio : 16:9
Frame rate : 23.976 fps
Color space : YUV
Chroma subsampling : 4:2:0
Bit depth : 8 bits
Scan type : Progressive
Bits/(Pixel*Frame) : 0.241
Stream size : 7.00 GiB (90%)
Title : Zhuk_Mikola
Writing library : core 125 r2208 d9d2288
Encoding settings : cabac=1 / ref=4 / deblock=1:-1:-1 / analyse=0x3:0x133 / me=umh / subme=11 / psy=1 / psy_rd=1.15:0.25 / mixed_ref=1 / me_range=24 / chroma_me=1 / trellis=2 / 8x8dct=1 / cqm=0 / deadzone=21,11 / fast_pskip=0 / chroma_qp_offset=-4 / threads=12 / lookahead_threads=2 / sliced_threads=0 / nr=0 / decimate=1 / interlaced=0 / bluray_compat=0 / constrained_intra=0 / bframes=6 / b_pyramid=1 / b_adapt=2 / b_bias=0 / direct=3 / weightb=1 / open_gop=0 / weightp=2 / keyint=250 / keyint_min=23 / scenecut=40 / intra_refresh=0 / rc_lookahead=50 / rc=2pass / mbtree=1 / bitrate=12000 / ratetol=1.0 / qcomp=0.60 / qpmin=0 / qpmax=69 / qpstep=4 / cplxblur=20.0 / qblur=0.5 / ip_ratio=1.40 / aq=1:1.00
Language : English
Default : Yes
Forced : No

Audio #2
ID : 2
Format : AC-3
Format/Info : Audio Coding 3
Mode extension : CM (complete main)
Codec ID : A_AC3
Duration : 1h 25mn
Bit rate mode : Constant
Bit rate : 192 Kbps
Channel(s) : 2 channels
Channel positions : Front: L R
Sampling rate : 48.0 KHz
Bit depth : 16 bits
Compression mode : Lossy
Stream size : 117 MiB (1%)
Title : Двоголосий закадровий, ТЕТ
Language : Ukrainian
Default : Yes
Forced : No

Audio #3
ID : 3
Format : AC-3
Format/Info : Audio Coding 3
Mode extension : CM (complete main)
Codec ID : A_AC3
Duration : 1h 25mn
Bit rate mode : Constant
Bit rate : 192 Kbps
Channel(s) : 2 channels
Channel positions : Front: L R
Sampling rate : 48.0 KHz
Bit depth : 16 bits
Compression mode : Lossy
Stream size : 117 MiB (1%)
Title : Двоголосий закадровий, К1
Language : Ukrainian
Default : No
Forced : No

Audio #4
ID : 4
Format : AC-3
Format/Info : Audio Coding 3
Mode extension : CM (complete main)
Codec ID : A_AC3
Duration : 1h 25mn
Bit rate mode : Constant
Bit rate : 640 Kbps
Channel(s) : 2 channels
Channel positions : Front: L R
Sampling rate : 48.0 KHz
Bit depth : 16 bits
Compression mode : Lossy
Stream size : 391 MiB (5%)
Language : English
Default : No
Forced : No

Text #5
ID : 5
Format : UTF-8
Codec ID : S_TEXT/UTF8
Codec ID/Info : UTF-8 Plain Text
Language : English
Default : Yes
Forced : No
Скріншоти



Подяка:
Запис з ТБ: Аудіо # 1 - Sando7, Аудіо # 2 - urij546724;
Синхронізація: Аудіо # 1 - patriot2305, Аудіо # 2 - urij54b6724;
Постер: Ermolenko

Джерело: &
Особиста оцінка: 8 - мені сподобалося


Срібний реліз (на рейтинг впливає 50% завантаженого)
 Трекер:    Зареєстрований   

Завантажити / скачати фільм українською



відео для новачків



 Зареєстрований:   2018-04-15 08:42
 Розмір:   7.77 GB 
 Оцінка фільму:   7.9/10 (Голосів: 7)
   
boroznaya 
Попереджень: 1
Попереджень: 1 


З нами з: 02.11.12
Востаннє: 16.09.20
Повідомлень: 2938

2018-04-15 08:56  
Фільм "Лепрекон 2" на роздачі!
Всім приємного перегляду!

hetzendorf 
Забанено
Забанено


З нами з: 23.07.15
Востаннє: 18.09.20
Повідомлень: 2876

2020-02-06 00:40  
Ну цей принаймні веселіший та оригінальніший за попередній. Шкода лише Кіммі Робертсон тут замало >_<
7/10

Ваш часовий пояс: GMT + 2 Години

Нова тема   Відповісти