Жінка-кішка / Catwoman (2004) 1080p Ukr/Eng | Sub Eng

Нові коментарі

Нова тема   Відповісти
Автор Повідомлення
boroznaya 
Попереджень: 1
Попереджень: 1 


З нами з: 02.11.12
Востаннє: 17.10.18
Повідомлень: 2967

2018-04-08 11:48  
Жінка-кішка / Catwoman (2004) 1080p Ukr/Eng | Sub Eng

Жінка-кішка / Catwoman (2004) 1080p Ukr/Eng | Sub Eng
Старий постер:

Жінка-кішка / Catwoman (2004) 1080p Ukr/Eng | Sub Eng


Жанр: фантастика, пригодницький, бойовик, фентезі
Країна: США



Кінокомпанія: Warner Brothers, Village Roadshow Pictures
Режисер: Пітоф
Актори: Геллі Беррі, Бенджамін Бретт, Шерон Стоун, Ламбер Вілсон, Френсіс Конрой, Алекс Борштейн, Майкл Массі, Байрон Манн, Кім Сміт, Пітер Вінґфілд, Беренд Маккензі, Она Гравер

Сюжет:
"Жінка-кішка" - це історія боязкої і соромливої художниці Пейшнс Філіпс (Геллі Беррі), що соромиться, здається, власної тіні. Вона працює дизайнером в "Hedare Beauty", величезній косметичній компанії, що стоїть на порозі відкриття революційного засобу проти старіння. Випадково дізнавшись таємницю свого боса, Пейшнс опинилася в центрі масштабної корпоративної змови. Подальші події назавжди змінили її життя. За загадковим збігом обставин, вона знайшла силу, швидкість і спритність кішки. З новими здібностями і розвиненою інтуїцією, Пейшнс стає жінкою-кішкою, спритною і непомітною істотою, що балансує на грані між добром і злом. Як будь-яка дика кішка, вона небезпечна, невловима і її неможливо приручити. Її пригоди ускладнюються відносинами, що розвиваються з Томом Лоуном (Бенджамін Бретт), поліцейським, що закохався в Пейшнс. Проте він не може позбавитися свого захоплення таємничою жінкою-кішкою, яку підозрюють в здійсненні ряду злочинів, що охопили місто.


Тривалість: 01:44:18
Якість: 1080p
Відео:
кодек:
розмір кадру: 1920x798
бітрейт: 9562 кб/с

Аудіо # 1:
мова: українська
переклад: багатоголосий закадровий
кодек: 2.0
бітрейт: 192 кб/с

Аудіо # 2:
мова: англійська
переклад: оригінал
кодек: 5.1
бітрейт: 640 кб/с

Субтитри:
мова: англійська
тип: програмні (м'які)
формат: *.srt
Info
D:\Завантаження\Catwoman (2004) [Ukr, Eng, sub. Eng] 1080p [Hurtom].
General
Unique ID : 3758366486011552630387072475906108307 (0x2D3D5C63681CE64A0884CAD88CEEB93)
Complete name : D:\Завантаження\Catwoman (2004) [Ukr, Eng, sub. Eng] 1080p [Hurtom].
Format :
Format version : Version 4 / Version 2
File size : 7.57 GiB
Duration : 1h 44mn
Overall bit rate : 10.4 Mbps
Movie name : Женщина-кошка / Catwoman (2004)
Encoded date : UTC 2018-04-07 11:37:55
Writing application : v20.0.0 ('I Am The Sun') 64-bit
Writing library : libebml v1.3.5 + v1.4.8
DURATION : 01:44:17.952000000
NUMBER_OF_FRAMES : 195561
NUMBER_OF_BYTES : 150190848
_STATISTICS_WRITING_APP : v20.0.0 ('I Am The Sun') 64-bit
_STATISTICS_WRITING_DATE_UTC : 2018-04-07 11:37:55
_STATISTICS_TAGS : BPS DURATION NUMBER_OF_FRAMES NUMBER_OF_BYTES
Attachment : Yes

Video #1
ID : 1
Format : AVC
Format/Info : Advanced Video Codec
Format profile : [email protected]
Format settings, CABAC : Yes
Format settings, ReFrames : 5 frames
Codec ID : V_MPEG4/ISO/AVC
Duration : 1h 44mn
Bit rate : 9 562 Kbps
Width : 1 920 pixels
Height : 798 pixels
Display aspect ratio : 2.40:1
Frame rate : 23.976 fps
Color space : YUV
Chroma subsampling : 4:2:0
Bit depth : 8 bits
Scan type : Progressive
Bits/(Pixel*Frame) : 0.260
Stream size : 6.82 GiB (90%)
Writing library : core 138 r2358 9e941d1
Encoding settings : cabac=1 / ref=5 / deblock=1:-3:-3 / analyse=0x3:0x133 / me=umh / subme=11 / psy=1 / psy_rd=1.00:0.00 / mixed_ref=1 / me_range=32 / chroma_me=1 / trellis=2 / 8x8dct=1 / cqm=0 / deadzone=21,11 / fast_pskip=0 / chroma_qp_offset=-2 / threads=12 / lookahead_threads=1 / sliced_threads=0 / nr=0 / decimate=0 / interlaced=0 / bluray_compat=0 / constrained_intra=0 / bframes=6 / b_pyramid=2 / b_adapt=2 / b_bias=0 / direct=3 / weightb=1 / open_gop=0 / weightp=2 / keyint=240 / keyint_min=23 / scenecut=40 / intra_refresh=0 / rc_lookahead=80 / rc=2pass / mbtree=0 / bitrate=9562 / ratetol=1.0 / qcomp=0.60 / qpmin=0 / qpmax=69 / qpstep=4 / cplxblur=20.0 / qblur=0.5 / vbv_maxrate=50000 / vbv_bufsize=62500 / nal_hrd=none / ip_ratio=1.40 / pb_ratio=1.30 / aq=2:1.00
Language : English
Default : Yes
Forced : No
DURATION : 01:44:18.002000000
NUMBER_OF_FRAMES : 150042
NUMBER_OF_BYTES : 7476960794
_STATISTICS_WRITING_APP : v20.0.0 ('I Am The Sun') 64-bit
_STATISTICS_WRITING_DATE_UTC : 2018-04-07 11:37:55
_STATISTICS_TAGS : BPS DURATION NUMBER_OF_FRAMES NUMBER_OF_BYTES

Audio #2
ID : 2
Format : AC-3
Format/Info : Audio Coding 3
Mode extension : CM (complete main)
Codec ID : A_AC3
Duration : 1h 44mn
Bit rate mode : Constant
Bit rate : 192 Kbps
Channel(s) : 2 channels
Channel positions : Front: L R
Sampling rate : 48.0 KHz
Bit depth : 16 bits
Compression mode : Lossy
Stream size : 143 MiB (2%)
Title : Багатоголосий закадровий, Новий канал
Language : Ukrainian
Default : Yes
Forced : No

Audio #3
ID : 3
Format : AC-3
Format/Info : Audio Coding 3
Mode extension : CM (complete main)
Codec ID : A_AC3
Duration : 1h 44mn
Bit rate mode : Constant
Bit rate : 640 Kbps
Channel(s) : 6 channels
Channel positions : Front: L C R, Side: L R, LFE
Sampling rate : 48.0 KHz
Bit depth : 16 bits
Compression mode : Lossy
Stream size : 477 MiB (6%)
Language : English
Default : No
Forced : No

Text #4
ID : 4
Format : UTF-8
Codec ID : S_TEXT/UTF8
Codec ID/Info : UTF-8 Plain Text
Language : English
Default : No
Forced : No
Скріншоти









За запис з ТБ дякую пану xslim, за синхронізацію - п. Arsenfpu.

Джерело: &
Особиста оцінка: 8 - мені сподобалося


Срібний реліз (на рейтинг впливає 50% завантаженого)
 Трекер:    Зареєстрований   

Завантажити / скачати фільм українською



відео для новачків



 Зареєстрований:   2018-04-10 17:53
 Розмір:   7.57 GB 
 Оцінка фільму:   8.5/10 (Голосів: 6)
   
Інші релізи
   Жінка-кішка / Catwoman (2004) AVC Ukr/Eng | Sub Eng staf777  6 / 0   1.9 GB   2018-09-17 20:16 
   Жінка-кішка / Catwoman (2004) Ukr/Eng Arsenfpu  3 / 0   1.81 GB   2017-10-29 23:07 
boroznaya 
Попереджень: 1
Попереджень: 1 


З нами з: 02.11.12
Востаннє: 17.10.18
Повідомлень: 2967

2018-04-10 17:57  
Фільм "Жінка-кішка" на роздачі!
Всім приємного перегляду!

mr. blef 
Частий відвідувач


З нами з: 26.02.18
Востаннє: 13.10.18
Повідомлень: 39

2018-04-10 18:06  
Ого! Рейтинг просто шикарний...
Невже фільм настільки поганенький? Хм...
Та ні! Нещодавно переглядав, і все сподобалось!
От так! Сьогоднішнім кіноманам спробуй тільки догодити...

jaral 
Відео Гуртом - підтримка та поширення
Відео Гуртом - підтримка та поширення


З нами з: 18.10.07
Востаннє: 18.10.18
Повідомлень: 655

2018-09-18 02:29  
boroznaya написано:
Холлі Беррі
Геллі Беррі;
boroznaya написано:
Пітер Уінгфілд
Пітер Вінґфілд;
boroznaya написано:
Она Грауер
Она Ґравер.
Ваш часовий пояс: GMT + 2 Години

Нова тема   Відповісти