Ботокс / Botoks (2017) 720p Pol | Sub Ukr/Eng

Нові коментарі

Нова тема   Відповісти
Автор Повідомлення
ivan vyrvyvuho 
VIP


З нами з: 19.08.12
Востаннє: 01.12.20
Повідомлень: 1177

2018-04-07 11:01  
Ботокс / Botoks (2017) 720p Pol | Sub Ukr/Eng

Ботокс / Botoks (2017) 720p Pol | Sub Ukr/Eng


Жанр: комедія, драма
Країна: Польща



Увага, вікове обмеження: 16+
Кінокомпанія: Vega Investments
Режисер: Патрик Веґа / Patryk Vega
Актори: Ольґа Болондзь / Olga Bołądź, Аґнєшка Диґант / Agnieszka Dygant, Катажина Варнке / Katarzyna Warnke, Марієта Жуковська / Marieta Żukowska, Януш Хабьор / Janusz Chabior, Себастіан Фаб'янський / Sebastian Fabijański, Пйотр Страмовський / Piotr Stramowski, Войцех Каліновський / Wojciech Kalinowski, Міхал Куля / Michał Kula, Войцех Махніцький / Wojciech Machnicki, Томаш Освєцінський / Tomasz Oświeciński, Ґражина Шаполовська / Grażyna Szapołowska та інші.

Сюжет:
У фільмі переплітаються долі чотирьох жінок – парамедика Даніели, гінеколога Маґди, уролога Патриції та лікарки з відділення екстреної допомоги - Беати. Кожна з них живе своїм життям, але коли виникають проблеми, то, на жаль, на допомогу від чоловіків вони не можуть розраховувати, хоча до цього прагнуть. У фільмі підняті проблеми польського суспільства у медицині, а саме абортів і зловживаннями у фармакологі та проблеми гендерної рівності у медичній сфері та загалом.


Тривалість: 02:17:20
Якість:
Відео:
кодек:
розмір кадру: 1280 х 544
бітрейт: 4500 кб/с

Аудіо:
мова: польська
переклад: оригінал
кодек: 5.1
бітрейт: 512 кб/с

Субтитри:
мова: українська
тип: програмні (м'які)
формат: *.srt
переклад: з польської ivan vyrvyvuho

Субтитри:
мова: англійська
тип: програмні (м'які)
формат: *.srt
Скріншоти









Медіаінфо
General
Unique ID : 228408398558071112634587863194796251636 (0xABD5DB80BEE15897AB0800FCD10359F4)
Complete name : D:\тор\Botoks (2017) [Pol,Sub Ukr,Eng] 720p.
Format :
Format version : Version 2
File size : 4.76 GiB
Duration : 2 h 17 min
Overall bit rate : 4 964 kb/s
Encoded date : UTC 2018-04-01 17:55:39 / UTC 2018-02-28 22:28:01
Writing application : v5.6.0 ('Kenya Kane') built on May 27 2012 16:44:04
Writing library : libebml v1.2.3 + v1.3.0 / Lavf54.63.104

Video
ID : 1
Format : AVC
Format/Info : Advanced Video Codec
Format profile : [email protected]
Format settings, CABAC : Yes
Format settings, ReFrames : 1 frame
Codec ID : V_MPEG4/ISO/AVC
Duration : 2 h 17 min
Bit rate : 4 500 kb/s
Width : 1 280 pixels
Height : 544 pixels
Display aspect ratio : 2.35:1
Frame rate mode : Constant
Frame rate : 24.000 FPS
Color space : YUV
Chroma subsampling : 4:2:0
Bit depth : 8 bits
Scan type : Progressive
Bits/(Pixel*Frame) : 0.269
Stream size : 4.18 GiB (88%)
Writing library : core 129
Encoding settings : cabac=1 / ref=1 / deblock=1:0:0 / analyse=0x1:0x131 / me=dia / subme=2 / psy=1 / psy_rd=1.00:0.00 / mixed_ref=0 / me_range=16 / chroma_me=1 / trellis=0 / 8x8dct=0 / cqm=0 / deadzone=21,11 / fast_pskip=1 / chroma_qp_offset=0 / threads=4 / lookahead_threads=1 / sliced_threads=0 / nr=0 / decimate=1 / interlaced=0 / bluray_compat=0 / constrained_intra=0 / bframes=0 / weightp=2 / keyint=250 / keyint_min=25 / scenecut=40 / intra_refresh=0 / rc_lookahead=40 / rc=abr / mbtree=1 / bitrate=4500 / ratetol=1.0 / qcomp=0.60 / qpmin=10 / qpmax=51 / qpstep=4 / ip_ratio=1.41 / aq=1:1.00
Default : Yes
Forced : No

Audio
ID : 2
Format : AC-3
Format/Info : Audio Coding 3
Mode extension : CM (complete main)
Format settings, Endianness : Big
Codec ID : A_AC3
Duration : 2 h 17 min
Bit rate mode : Constant
Bit rate : 512 kb/s
Channel(s) : 6 channels
Channel positions : Front: L C R, Side: L R, LFE
Sampling rate : 48.0 kHz
Frame rate : 31.250 FPS (1536 spf)
Bit depth : 16 bits
Compression mode : Lossy
Stream size : 503 MiB (10%)
Default : Yes
Forced : No

Text #1
ID : 3
Format : UTF-8
Codec ID : S_TEXT/UTF8
Codec ID/Info : UTF-8 Plain Text
Title : Ukr
Language : Ukrainian
Default : Yes
Forced : Yes

Text #2
ID : 4
Format : UTF-8
Codec ID : S_TEXT/UTF8
Codec ID/Info : UTF-8 Plain Text
Title : Eng
Language : English
Default : No
Forced : No
Джерело:
Особиста оцінка: 7 - варта уваги. У Польщі на стрічку вилили тони лайна й затаврували "антипольською", тому такий рейтинг на IMDb.


Золотий реліз (завантажене не впливає на рейтинг)
 Трекер:    Зареєстрований   

Завантажити / скачати фільм українською



відео для новачків



 Зареєстрований:   2018-04-07 11:01
 Розмір:   4.76 GB 
 Оцінка фільму:   8.7/10 (Голосів: 12)
   
ivan vyrvyvuho 
VIP


З нами з: 19.08.12
Востаннє: 01.12.20
Повідомлень: 1177

2018-04-07 16:45  
Прошу вибачення у тих, хто завантажує, дане відео не відповідає правилам трекера, тому роздача припинена. Мушу завантажити інше відео й тоді поновлю роздачу.Sad (1)
tetna 
VIP


З нами з: 21.11.14
Востаннє: 01.12.20
Повідомлень: 581

2018-04-07 18:02  
дайте тут посилання, коли буде новий реліз. пліз.
faustyn25 
Новенький


З нами з: 20.08.09
Востаннє: 17.10.20
Повідомлень: 1

2018-06-10 11:42  
Фільм 10 балів. Як для мене це найкращий і найнестандартніший польський фільм що бачив (бачив практично усі що є тут на торенті). Трохи нагадує фільми Гая Річі і моментами його перевершує. Короче кажучи фільм -жесть, розрив, рвань.
TetianaKuplewacka 
Новенький


З нами з: 14.09.17
Востаннє: 24.10.20
Повідомлень: 1

2019-09-08 20:04  
Хотілося би побачити і інші фільми Патрика Вегі. Бо я не знаю, як їх можна побачити з України, окрім як знайти тут у вас. Дякую
ivan vyrvyvuho 
VIP


З нами з: 19.08.12
Востаннє: 01.12.20
Повідомлень: 1177

2019-09-08 21:55  
TetianaKuplewacka
дякую за відгук. Інші фільми Веги можна з польських торрент трекерів завантажити. Жінки мафії, Напасті Бреслау, Політика - найновіший.

nethole 
Новенький


З нами з: 06.08.08
Востаннє: 23.11.20
Повідомлень: 3

2020-01-13 12:22  
[офтоп видалено]
Дякую!

Ваш часовий пояс: GMT + 2 Години

Нова тема   Відповісти