Формула 1. Сезон 2018. Етап 2. Гран-Прі Бахрейну. 1 практика (06.04.2018) 720p

Нові коментарі

Нова тема   Відповісти
Останній раз роздавалося elena. (2020-07-13)
Автор Повідомлення
sergiyko.5 
Забанено
Забанено


З нами з: 25.02.16
Востаннє: 29.10.20
Повідомлень: 3651

2018-04-06 17:04  
Формула 1. Сезон 2018. Етап 2. Гран-Прі Бахрейну. 1 практика (06.04.2018) 720p

Формула 1. Сезон 2018. Етап 2. Гран-Прі Бахрейну. 1 практика (06.04.2018) 720p

Жанр: Перегони Формули 1
Країна: Бахрейн
Телеканал: Перший автомобільний
Коментатор: Павло Воробйов

Опис:
Перша практика другого сезону Гран-Прі Бахрейну 2018 року відбулась о 13:00 за київським часом.


Тривалість: 01:39:39
Якість:

Відео:кодек: розмір кадру: 1280 х 720 бітрейт: 4000 кб/с
Аудіо: мова: українська кодек: 2.0 бітрейт: 192 кб/с
Про файл:
General
Unique ID : 285168752961593502038141845378568923586 (0xD6898109A1E9F01AB4169ADD0A39A9C2)
Complete name : D:\Torrents\SPORT\Formula 1\F1.2018.02.Bahrain.Practice.1.720p..
Format :
Format version : Version 4 / Version 2
File size : 2.91 GiB
Duration : 1 h 39 min
Overall bit rate : 4 181 kb/s
Movie name : F1 2018 02 Bahrain Practice 1 720p
Encoded date : UTC 2018-04-06 14:46:56
Writing application : v22.0.0 ('At The End Of The World') 64-bit
Writing library : libebml v1.3.5 + v1.4.8

Video
ID : 1
Format : AVC
Format/Info : Advanced Video Codec
Format profile : [email protected]
Format settings, CABAC : Yes
Format settings, ReFrames : 4 frames
Format settings, GOP : M=2, N=15
Codec ID : V_MPEG4/ISO/AVC
Duration : 1 h 39 min
Bit rate : 3 986 kb/s
Width : 1 280 pixels
Height : 720 pixels
Display aspect ratio : 16:9
Frame rate mode : Constant
Frame rate : 50.000 FPS
Color space : YUV
Chroma subsampling : 4:2:0
Bit depth : 8 bits
Scan type : Progressive
Bits/(Pixel*Frame) : 0.087
Stream size : 2.77 GiB (95%)
Language : English
Default : Yes
Forced : No
Color range : Limited
Color primaries : BT.709
Transfer characteristics : BT.709
Matrix coefficients : BT.709

Audio
ID : 2
Format : AC-3
Format/Info : Audio Coding 3
Mode extension : CM (complete main)
Format settings, Endianness : Big
Codec ID : A_AC3
Duration : 1 h 39 min
Bit rate mode : Constant
Bit rate : 192 kb/s
Channel(s) : 2 channels
Channel positions : Front: L R
Sampling rate : 48.0 kHz
Frame rate : 31.250 FPS (1536 spf)
Bit depth : 16 bits
Compression mode : Lossy
Delay relative to video : -200 ms
Stream size : 137 MiB (5%)
Title : 1 Авто | Павло Воробйов
Language : Ukrainian
Default : Yes
Forced : No
Скріншоти:


Автор запису/зведення: sergiyko


 Трекер:    Зареєстрований   

Завантажити / скачати торрент



відео для новачків



 Зареєстрований:   2018-04-06 17:04
 Розмір:   2.91 GB 
 Оцінка:   10/10 (Голосів: 1)
   
Ваш часовий пояс: GMT + 2 Години

Нова тема   Відповісти