Формула 1. Сезон 2018. Етап 2. Гран-Прі Бахрейну. 1 практика (06.04.2018) HDTV 1080i

Нові коментарі

Нова тема   Відповісти
Останній раз роздавалося sergiyko.5 (2018-04-19)
Автор Повідомлення
sergiyko.5 
VIP


З нами з: 25.02.16
Востаннє: 28.10.20
Повідомлень: 3638

2018-04-06 16:05  
Формула 1. Сезон 2018. Етап 2. Гран-Прі Бахрейну. 1 практика (06.04.2018) HDTV 1080i


Формула 1. Сезон 2018. Етап 2. Гран-Прі Бахрейну. 1 практика (06.04.2018) HDTV 1080i

Жанр: Перегони Формули 1
Країна: Бахрейн
Телеканал: Перший автомобільний
Коментатор: Павло Воробйов

Опис:
Перша практика другого сезону Гран-Прі Бахрейну 2018 року відбулась о 13:00 за київським часом.


Тривалість: 01:39:38
Якість: HDTV

Відео:кодек: розмір кадру: 1920 х 1080 бітрейт: 10000 кб/с
Аудіо: мова: українська кодек: 2.0 бітрейт: 192 кб/с
Про файл:
General
Unique ID : 269750862605259754332055599002112493555 (0xCAF0205A8AFE5ECF28D4A2FFE6B807F3)
Complete name : D:\Torrents\SPORT\Formula 1\F1.2018.02.Bahrain.Practice.1.1080i.HDTV.
Format :
Format version : Version 4 / Version 2
File size : 5.47 GiB
Duration : 1 h 39 min
Overall bit rate : 7 861 kb/s
Movie name : F1 2018 02 Bahrain Practice 1 1080i HDTV
Encoded date : UTC 2018-04-06 13:49:31
Writing application : v22.0.0 ('At The End Of The World') 64-bit
Writing library : libebml v1.3.5 + v1.4.8

Video
ID : 1
Format : AVC
Format/Info : Advanced Video Codec
Format profile : [email protected]
Format settings, CABAC : Yes
Format settings, ReFrames : 4 frames
Format settings, GOP : M=4, N=28
Codec ID : V_MPEG4/ISO/AVC
Duration : 1 h 39 min
Bit rate : 7 665 kb/s
Width : 1 920 pixels
Height : 1 080 pixels
Display aspect ratio : 16:9
Frame rate mode : Variable
Frame rate : 50.000 FPS
Original frame rate : 25.000 FPS
Standard : Component
Color space : YUV
Chroma subsampling : 4:2:0
Bit depth : 8 bits
Scan type : Interlaced
Scan type, store method : Separated fields
Scan order : Top Field First
Bits/(Pixel*Frame) : 0.074
Stream size : 5.33 GiB (98%)
Title : F1 2018 02 Bahrain Practice 1 1080i HDTV
Language : English
Default : Yes
Forced : No
Color range : Limited
Color primaries : BT.709
Transfer characteristics : BT.709
Matrix coefficients : BT.709

Audio
ID : 2
Format : AC-3
Format/Info : Audio Coding 3
Mode extension : CM (complete main)
Format settings, Endianness : Big
Codec ID : A_AC3
Duration : 1 h 39 min
Bit rate mode : Constant
Bit rate : 192 kb/s
Channel(s) : 2 channels
Channel positions : Front: L R
Sampling rate : 48.0 kHz
Frame rate : 31.250 FPS (1536 spf)
Bit depth : 16 bits
Compression mode : Lossy
Stream size : 137 MiB (2%)
Title : 1 Авто | Павло Воробйов
Language : Ukrainian
Default : Yes
Forced : No
Скріншоти:


Автор запису/зведення: sergiyko


 Трекер:    Зареєстрований   

Завантажити / скачати торрент



відео для новачків



 Зареєстрований:   2018-04-06 16:05
 Розмір:   5.47 GB 
 Оцінка:   10/10 (Голосів: 2)
   
Ваш часовий пояс: GMT + 2 Години

Нова тема   Відповісти