Легенда / Legend (2015) Remux 1080p Ukr/Eng | Sub Eng

Нові коментарі

Нова тема   Відповісти
Автор Повідомлення
Devil_my_cry 
Частий відвідувач


З нами з: 26.06.10
Востаннє: 09.06.20
Повідомлень: 43

2018-04-05 17:29  
Легенда / Legend (2015) Remux 1080p Ukr/Eng | Sub Eng

Легенда / Legend (2015) Remux 1080p Ukr/Eng | Sub Eng


Жанр: біографічний, драма, трилер
Країна: Велика Британія, Франція



Кінокомпанія: Anton Capital Entertainment (ACE), Cross Creek Pictures, StudioCanal
Режисер: Браян Гелґеланд / Brian Helgeland
Актори: Том Гарді / Tom Hardy, Емілі Браунінґ / Emily Browning, Терон Едґертон / Taron Egerton, Пол Беттані / Paul Bettany, Анайрін Барнард / Aneurin Barnard, Колін Морґан / Colin Morgan, Девід Т'юліс / David Thewlis, Крістофер Екклстон / Christopher Eccleston, Пол Андерсон / Paul Anderson

Сюжет:
Події фільму відбуваються в середині шістдесятих років, у Лондоні. Це був час слави для братів-ґанґстерів Ронні і Реджі Крея, що створили кримінальну імперію. Вони керували Іст-Ендом, Вест-Ендом і периферією. Стояли на чолі клубів, займалися рекетом, воювали зі своїми супротивниками - родиною Річардсон із південного Лондона. Близнюки примудрилися зав'язати справи з американською мафією і здійснити вбивства, які не могли б зійти їм з рук. Сюжет фільму сфокусований більше на Реджі Креї, який щасливо одружується, і намагається контролювати свого брата, що піддається психопатичним нахилам...


Тривалість: 02:11:02
Якість: Remux 1080p
Відео:
кодек:
розмір кадру: 1920 х 1080
бітрейт: 22,8 Мб/с

Аудіо # 1:
мова: українська
переклад: багатоголосий закадровий
кодек: 5.1
бітрейт: 448 кб/с

Аудіо # 2:
мова: англійська
переклад: оригінал
кодек: -HD 7.1
бітрейт: 4322 кб/с

Субтитри:
мова: англійська
тип: програмні (м'які)
формат: *.srt
Info
Video
ID : 1
Format : AVC
Format/Info : Advanced Video Codec
Format profile : [email protected]
Format settings : CABAC / 3 Ref Frames
Format settings, CABAC : Yes
Format settings, ReFrames : 3 frames
Codec ID : V_MPEG4/ISO/AVC
Duration : 2 h 11 min
Bit rate mode : Variable
Bit rate : 22.8 Mb/s
Maximum bit rate : 26.0 Mb/s
Width : 1 920 pixels
Height : 1 080 pixels
Display aspect ratio : 16:9
Frame rate mode : Constant
Frame rate : 24.000 FPS
Standard : NTSC
Color space : YUV
Chroma subsampling : 4:2:0
Bit depth : 8 bits
Scan type : Progressive
Bits/(Pixel*Frame) : 0.459
Stream size : 20.9 GiB (83%)
Default : No
Forced : No
Color range : Limited
Color primaries : BT.709
Transfer characteristics : BT.709
Matrix coefficients : BT.709

Audio #1
ID : 2
Format : AC-3
Format/Info : Audio Coding 3
Codec ID : A_AC3
Duration : 2 h 11 min
Bit rate mode : Constant
Bit rate : 448 kb/s
Channel(s) : 6 channels
Channel positions : Front: L C R, Side: L R, LFE
Sampling rate : 48.0 kHz
Frame rate : 31.250 FPS (1536 SPF)
Bit depth : 16 bits
Compression mode : Lossy
Stream size : 420 MiB (2%)
Title : 5.1 Dub
Language : Ukrainian
Service kind : Complete Main
Default : Yes
Forced : No

Audio #2
ID : 3
Format :
Format/Info : Digital Theater Systems
Format profile : MA / Core
Codec ID : A_DTS
Duration : 2 h 11 min
Bit rate mode : Variable / Constant
Bit rate : 4 322 kb/s / 768 kb/s
Channel(s) : 8 channels / 6 channels
Channel positions : Front: L C R, Side: L R, Back: L R, LFE / Front: L C R, Side: L R, LFE
Sampling rate : 48.0 kHz
Frame rate : 93.750 FPS (512 SPF)
Bit depth : 24 bits
Compression mode : Lossless / Lossy
Stream size : 3.96 GiB (16%)
Title : Original
Language : English
Default : No
Forced : No

Text
ID : 4
Format : UTF-8
Codec ID : S_TEXT/UTF8
Codec ID/Info : UTF-8 Plain Text
Duration : 2 h 7 min
Bit rate : 76 b/s
Count of elements : 2004
Stream size : 71.1 KiB (0%)
Language : English
Default : No
Forced : No

Menu
00:00:00.000 : en:00:00:00.000
00:10:25.292 : en:00:10:25.292
00:21:04.917 : en:00:21:04.917
00:30:57.125 : en:00:30:57.125
00:43:26.292 : en:00:43:26.292
00:50:36.958 : en:00:50:36.958
01:02:41.333 : en:01:02:41.333
01:12:30.375 : en:01:12:30.375
01:23:04.042 : en:01:23:04.042
01:33:02.708 : en:01:33:02.708
01:43:27.292 : en:01:43:27.292
01:54:15.667 : en:01:54:15.667
Скріншоти







Джерело: &
Особиста оцінка: 9 - давно не бачив настільки якісне кіно


Золотий реліз (завантажене не впливає на рейтинг)
 Трекер:    Зареєстрований   

Завантажити / скачати фільм українською



відео для новачків



 Зареєстрований:   2018-04-05 17:29
 Розмір:   25.28 GB 
 Оцінка фільму:   9.3/10 (Голосів: 20)
   
Інші релізи
   Легенда / Legend (2015) AVC 2xUkr/Eng | Sub Eng 11FrYkT  12 / 0   2.69 GB   2020-06-19 14:43 
   Легенда / Legend (2015) Gelios  3 / 0   2.18 GB   2016-01-19 23:36 
   Легенда / Legend (2015) 1080p Ukr/Eng | Sub Eng 11FrYkT  8 / 0   9.07 GB   2016-01-19 23:22 
   Легенда / Legend (2015) 720p Ukr/Eng | Sub Eng 11FrYkT  5 / 1   4.89 GB   2016-01-19 23:21 
sandman 
VIP


З нами з: 12.08.12
Востаннє: 18.01.21
Повідомлень: 419

2018-04-06 18:11  
відмінний фільм
Maks Havar 
Новенький


З нами з: 30.11.14
Востаннє: 05.01.21
Повідомлень: 16

2018-04-10 21:38  
Чудовий фільм ! Якщо любите фільми на тему гагстерів то однозначно вартує перегляду !
Lyolic 
VIP


З нами з: 04.08.09
Востаннє: 19.01.21
Повідомлень: 586

2018-04-11 17:09  
Ну то ж не дубляж, а гарна багатоголоска...

А по фільму, не те щоб шедевр, але вартий перегляду. Кльова акторська гра.

vash1 
VIP


З нами з: 16.03.16
Востаннє: 16.01.21
Повідомлень: 291

2018-12-13 17:53  
Lyolic написано:
Ну то ж не дубляж, а гарна багатоголоска...


релізер, виправте. я через це збирався качати ремукс

igor911 
Модератор відео


З нами з: 18.01.08
Востаннє: 19.01.21
Повідомлень: 15332

2018-12-13 18:07  
виправив
[email protected] 
VIP


З нами з: 24.03.17
Востаннє: 18.01.21
Повідомлень: 646

2019-11-21 00:21  
Особо невразив фільм, так на один раз подивитись
Бульмастиф 
Частий відвідувач


З нами з: 09.08.18
Востаннє: 18.01.21
Повідомлень: 28

2021-01-03 16:43  
шикарний , фільм дайте швидкості будь ласка
Ваш часовий пояс: GMT + 2 Години

Нова тема   Відповісти