Я - Легенда / I Am Legend (2007) UHD Remux 4K 2160p HDR H.265 Ukr/Eng | Sub Ukr/Eng

Нові коментарі

Нова тема   Відповісти
Автор Повідомлення
Vladuk88 
Свій


З нами з: 14.10.09
Востаннє: 21.09.18
Повідомлень: 59

2018-04-05 13:48  
Я - Легенда / I Am Legend (2007) UHD Remux 4K 2160p HDR H.265 Ukr/Eng | Sub Ukr/Eng

Я - Легенда / I Am Legend (2007) UHD Remux 4K 2160p HDR H.265 Ukr/Eng | Sub Ukr/Eng



Жанр: фантастика, трилер, драма, жахи
Країна: США



Кінокомпанія: Warner Bros. Pictures, Village Roadshow Pictures, Weed Road Pictures
Режисер: Френсіс Лоуренс
Актори: Вілл Сміт, Еліс Брага, Чарлі Тахан, Саллі Річардсон, Дарел Фостер, Ейпріл Грейс

Сюжет:
Адаптація однойменного роману Річарда Метісона про невідомий вірус, що знищив більше половини населення земної кулі, а решту перетворив на вампірів. Сюжет будується навколо єдиної вцілілої людини з імунітетом, що по ночах тримає нескінченну облогу, а вдень намагається знайти протиотруту та з'ясувати причини епідемії.


Тривалість: 01:40:26
Якість: 4K UltraHD Remux 2160p - отримано шляхом інтерполяції з 2K джерела
Відео:
кодек: H.265 (HEVC)
розмір кадру: 3840x2160
бітрейт: 62,2 Мб/с
бітова глибина: 10 біт
кольоровий простір: BT.2020 (HDR)

Аудіо # 1:
мова: українська
переклад: професійний дубльований
кодек: АС3 5.1
бітрейт: 448 кб/с

Аудіо # 2:
мова: англійська
переклад: оригінал
кодек: -HD MA, 5.1,
бітрейт: 3623 кб/с

Субтитри:# 1-2:
мова: українська (форсовані, повні)
тип: програмні (м'які)
формат: *srt

Субтитри # 3:
мова:англійська (повні)
тип: програмні (м'які)
формат: *srt

Як переглядати 4K UHD на телевізорі через комп'ютер методом DLNA
4K
Для перегляду можна використати ForkPlayer 2.5 http://forkplayer.tv/ або Plex Media Server https://www.plex.tv/ .
Важливо!!!!! Звичайні DLNA-Сервери не відтворюють 4K фільми
За допомогою в налаштуваннях звертайтеся в приват! Якщо хтось знає інші 100%-ві методи відтворення UHD, прошу також писати в приват
Info
General
Unique ID : 160235188825675269049729427377596768246 (0x788C2CC1AF3C1FD076E252AFF65D9FF6)
Complete name : Q:\I.Am.Legend.2007.Remux.2160p.4K.UltraHD.HEVC.HDR (1).
Format :
Format version : Version 4 / Version 2
File size : 46.5 GiB
Duration : 1 h 40 min
Overall bit rate : 66.2 Mb/s
Movie name : I Am Legend 2007 from ExKinoRay
Encoded date : UTC 2018-04-04 14:36:25
Writing application : v20.0.0 ('I Am The Sun') 64-bit
Writing library : libebml v1.3.5 + v1.4.8

Video
ID : 1
Format : HEVC
Format/Info : High Efficiency Video Coding
Commercial name : HDR10
Format profile : Main [email protected]@High
Codec ID : V_MPEGH/ISO/HEVC
Duration : 1 h 40 min
Bit rate : 62.2 Mb/s
Width : 3 840 pixels
Height : 2 160 pixels
Display aspect ratio : 16:9
Frame rate mode : Constant
Frame rate : 23.976 (24000/1001) FPS
Color space : YUV
Chroma subsampling : 4:2:0 (Type 2)
Bit depth : 10 bits
Bits/(Pixel*Frame) : 0.313
Stream size : 43.6 GiB (94%)
Language : English
Default : Yes
Forced : No
Color range : Limited
Color primaries : BT.2020
Transfer characteristics : PQ
Matrix coefficients : BT.2020 non-constant
Mastering display color pri : BT.709
Mastering display luminance : min: 0.0050 cd/m2, max: 4000 cd/m2
Maximum Content Light Level : 1261 cd/m2
Maximum Frame-Average Light : 512 cd/m2

Audio #1
ID : 2
Format : AC-3
Format/Info : Audio Coding 3
Codec ID : A_AC3
Duration : 1 h 40 min
Bit rate mode : Constant
Bit rate : 448 kb/s
Channel(s) : 6 channels
Channel positions : Front: L C R, Side: L R, LFE
Sampling rate : 48.0 kHz
Frame rate : 31.250 FPS (1536 SPF)
Bit depth : 16 bits
Compression mode : Lossy
Stream size : 322 MiB (1%)
Title : Blue-Ray PRO
Language : Ukrainian
Service kind : Complete Main
Default : Yes
Forced : No

Audio #2
ID : 3
Format :
Format/Info : Digital Theater Systems
Format profile : MA / Core
Codec ID : A_DTS
Duration : 1 h 40 min
Bit rate mode : Variable / Constant
Bit rate : 3 623 kb/s / 1 509 kb/s
Channel(s) : 6 channels
Channel positions : Front: L C R, Side: L R, LFE
Sampling rate : 48.0 kHz
Frame rate : 93.750 FPS (512 SPF)
Bit depth : 24 bits
Compression mode : Lossless / Lossy
Delay relative to video : 5 ms
Stream size : 2.54 GiB (5%)
Title : Original
Language : English
Default : No
Forced : No

Text #1
ID : 4
Format : UTF-8
Codec ID : S_TEXT/UTF8
Codec ID/Info : UTF-8 Plain Text
Duration : 1 h 39 min
Bit rate : 0 b/s
Count of elements : 12
Stream size : 564 Bytes (0%)
Title : Full
Language : Ukrainian
Default : Yes
Forced : No

Text #2
ID : 5
Format : UTF-8
Codec ID : S_TEXT/UTF8
Codec ID/Info : UTF-8 Plain Text
Duration : 1 h 40 min
Bit rate : 46 b/s
Count of elements : 659
Stream size : 33.8 KiB (0%)
Title : Forced
Language : Ukrainian
Default : No
Forced : No

Text #3
ID : 6
Format : UTF-8
Codec ID : S_TEXT/UTF8
Codec ID/Info : UTF-8 Plain Text
Duration : 1 h 31 min
Bit rate : 33 b/s
Count of elements : 658
Stream size : 22.3 KiB (0%)
Title : Full
Language : English
Default : No
Forced : No
Скріншоти












Джерело: &
Особиста оцінка: 10 - без зайвих вагань рекомендую всім!


Золотий реліз (завантажене не впливає на рейтинг)
 Трекер:    Зареєстрований   

Завантажити / скачати фільм українською



відео для новачків



 Зареєстрований:   2018-04-05 14:06
 Розмір:   46.48 GB 
 Оцінка фільму:   9.8/10 (Голосів: 4)
   
Virake 
Localize Team
Localize Team


З нами з: 07.07.09
Востаннє: 22.09.18
Повідомлень: 5299

2018-04-05 15:54  
і сенсу у тому, щоб це викладати в 4K? жодних нових деталей глядач не побачить. чіткість картинки ледве тягне на 720p.
Electroz 
Відео Гуртом - підтримка та поширення
Відео Гуртом - підтримка та поширення


З нами з: 18.09.14
Востаннє: 22.09.18
Повідомлень: 2949

2018-04-05 16:02  
Virake
інфа з мережі


Додано через 57 секунд:

  • Shot on 35mm
  • VFX Rendered in 2K
  • Digital Intermediate at 2K

Ваш часовий пояс: GMT + 2 Години

Нова тема   Відповісти