Загублена річ / The Lost Thing (2010) 1080p Ukr/Eng напівхардсаб

Нові коментарі

Нова тема   Відповісти
Останній раз роздавалося sirHermit (2020-12-27)
Автор Повідомлення
skulptorrr 
Свій


З нами з: 08.03.10
Востаннє: 25.11.20
Повідомлень: 129

2018-04-04 21:16  
Загублена річ / The Lost Thing (2010) 1080p Ukr/Eng напівхардсаб



Жанр: анімація, сімейний, фантастика, фентезі, казка
Країна: Австралія



Режисер: Ендрю Руеманн / Andrew Ruhemann, Шон Тан / Shaun Ta
Ролі озвучують: U Ku Shu, Asia

Сюжет:
«Загублена річ» - екранізація дитячої ілюстрованої книжки. Дія розвивається в «постапокаліптичному» Мельбурні, коли хлопчик, збираючи кришки від пляшок, зустрічає дивну річ. Вона являє собою суміш механічного великого казана і живого восьминога / краба. Хлопчина намагається з'ясувати природу походження цієї речі.

Українізація постера та переклад - somnambula.

Відеомонтаж: U Ku Shu

Тривалість: 00:15:55
Якість:
Відео:
кодек:
розмір кадру: 1912 х 1072
бітрейт: 6 111 кб/с

Аудіо # 1:
мова: українська
переклад: двоголосий закадровий [FanDubSheep]
кодек: MP3 LAME3.99r
бітрейт: 192 кб/с

Аудіо # 2:
мова: англійська
переклад: оригінал
кодек: MP3 LAME3.99r
бітрейт: 61.5 кб/с
Скріншоти







Info

General
Unique ID : 187660435486305658640323342062480358478 (0x8D2E15D030BA3F238147EBDD39557C4E)
Complete name : E:\Entertainment\video\Mult\Small mults\[2010][ukr]The_Lost_Thing-FanDubSheep.
Format :
Format version : Version 4 / Version 2
File size : 725 MiB
Duration : 15 min 57 s
Overall bit rate mode : Variable
Overall bit rate : 6 351 kb/s
Encoded date : UTC 2018-04-04 19:07:19
Writing application : v14.0.0 ('Flow') 64bit
Writing library : libebml v1.3.4 + v1.4.5

Video
ID : 1
Format : AVC
Format/Info : Advanced Video Codec
Format profile : [email protected]
Format settings, CABAC : Yes
Format settings, ReFrames : 2 frames
Codec ID : V_MPEG4/ISO/AVC
Duration : 15 min 55 s
Bit rate : 6 111 kb/s
Width : 1 912 pixels
Height : 1 072 pixels
Display aspect ratio : 16:9
Frame rate mode : Constant
Frame rate : 25.000 FPS
Color space : YUV
Chroma subsampling : 4:2:0
Bit depth : 8 bits
Scan type : Progressive
Bits/(Pixel*Frame) : 0.119
Stream size : 696 MiB (96%)
Language : English
Default : Yes
Forced : No

Audio #1
ID : 2
Format : MPEG Audio
Format version : Version 1
Format profile : Layer 3
Mode : Joint stereo
Mode extension : MS Stereo
Codec ID : A_MPEG/L3
Codec ID/Hint : MP3
Duration : 15 min 57 s
Bit rate mode : Constant
Bit rate : 192 kb/s
Channel(s) : 2 channels
Sampling rate : 44.1 kHz
Frame rate : 38.281 FPS (1152 spf)
Compression mode : Lossy
Stream size : 21.9 MiB (3%)
Title : FanDubSheep - UKS, Asia
Writing library : LAME3.99r
Encoding settings : -m j -V 4 -q 0 -lowpass 18.6 -b 192
Language : Ukrainian
Default : Yes
Forced : No

Audio #2
ID : 3
Format : MPEG Audio
Format version : Version 2
Format profile : Layer 3
Mode : Joint stereo
Mode extension : MS Stereo
Codec ID : A_MPEG/L3
Codec ID/Hint : MP3
Duration : 15 min 55 s
Bit rate mode : Variable
Bit rate : 61.5 kb/s
Minimum bit rate : 8 000 b/s
Channel(s) : 2 channels
Sampling rate : 22.05 kHz
Frame rate : 38.281 FPS (576 spf)
Compression mode : Lossy
Stream size : 7.01 MiB (1%)
Title : Orig
Writing library : LAME3.98r
Encoding settings : -m j -V 9 -q 5 -lowpass 9.5 --vbr-new -b 8
Language : English
Default : No
Forced : No
Джерело:


Особиста оцінка: 8 - мені сподобалося


Авторський реліз (завантажувати можна без реєстрації)
 Трекер:    Зареєстрований   

Завантажити / скачати фільм українською



відео для новачків



 Зареєстрований:   2018-04-04 22:03
 Розмір:   725 MB 
 Оцінка фільму:   7/10 (Голосів: 7)
   
kuzyag 
Частий відвідувач


З нами з: 17.03.09
Востаннє: 21.01.21
Повідомлень: 33

2018-04-05 08:57  
Прикольний мульт.
EvGaS 
Відео Гуртом - субтитрування
Відео Гуртом - субтитрування


З нами з: 27.02.12
Востаннє: 31.07.19
Повідомлень: 5663

2018-04-05 21:48  
Давно живе на гуртомі:

https://toloka.to/t55091

https://toloka.to/t55600

bot 
робот


З нами з: 30.09.07
Востаннє: 26.05.05
Повідомлень: 26949

2018-04-06 08:59  
Тему перенесено з Мультфільми до форуму Короткометражні


Neo777

Ваш часовий пояс: GMT + 2 Години

Нова тема   Відповісти