Перестрілка / Free Fire (2016) Ukr/Eng | Sub Eng

Нові коментарі

Нова тема   Відповісти
Автор Повідомлення
staf777 
Відео Гуртом - підтримка та поширення
Відео Гуртом - підтримка та поширення


З нами з: 16.11.16
Востаннє: 08.12.19
Повідомлень: 3037

2018-04-04 19:58  
Перестрілка / Free Fire (2016) Ukr/Eng | Sub Eng

Перестрілка / Free Fire (2016) Ukr/Eng | Sub Eng


Жанр: комедія, кримінальний, екшн
Країна: Велика Британія, Франція



Кінокомпанія: Film4, Protagonist Pictures, Rook Films
Режисер: Бен Вітлі
Актори: Брі Ларсон, Шарлто Коплі, Армі Гаммер, Кілліан Мерфі, Джек Рейнор, Сем Райлі, Ноа Тейлор, Майкл Смайлі, Енцо Чіленті, Бабу Сізей

Сюжет:
Події бойовика розгортаються в 1978 році на покинутому складі на околиці Бостона. Представники двох злочинних угруповань зустрілися, щоб укласти угоду з продажу зброї. Але в мирному руслі домовитися не вдалося і кожен, хто там опинився, взяв до рук зброю. Навіть Жюстін (Брі Ларсон) брала участь в перестрілці нарівні з чоловіками. Складно залишатися тендітною дівчиною в такому оточенні.


Тривалість: 01:30:34
Якість: (джерело: ExKinoRay / Blu-Ray Remux [US Transfer] / 1080р)
Відео:
кодек:
розмір кадру: 720x304
бітрейт: 1840 кб/с

Аудіо # 1:
мова: українська
переклад: професійний дубльований [iTunes]
кодек: 5.1
бітрейт: 384 кб/с

Аудіо # 2:
мова: англійська
переклад: оригінал
кодек: 5.1
бітрейт: 448 кб/с

Субтитри # 1-3:(повні, SDH, SDH Colored)
мова: англійська
тип: програмні (м'які)
формат: *.srt

Скріншоти





Дякую пану 11FrYkT за готовий ріп
Джерело: &
Особиста оцінка: 8 - мені сподобалося


 Трекер:    Зареєстрований   

Завантажити / скачати фільм українською



відео для новачків



 Зареєстрований:   2018-04-09 08:51
 Розмір:   1.7 GB 
 Оцінка фільму:   8/10 (Голосів: 19)
   
Інші релізи
   Перестрілка / Free Fire (2016) Remux 1080p 2xUkr/Eng | Sub Eng staf777  0 / 0   17.34 GB   2019-11-19 10:49 
   Перестрілка / Free Fire (2016) AVC Ukr/Eng | Sub Eng 11FrYkT  11 / 0   1.87 GB   2019-10-29 09:08 
   Перестрілка / Free Fire (2016) 2xUkr/Eng drop_plz  3 / 0   1.86 GB   2019-09-29 13:12 
   Перестрілка / Free Fire (2016) 720p Ukr/Eng | sub Eng sergiyko.5  4 / 0   6.52 GB   2019-09-05 13:19 
   Перестрілка / Free Fire (2016) Covenant  5 / 0   1.45 GB   2017-08-27 13:15 
   Перестрілка / Free Fire (2016) 1080p Ukr/Eng | Sub Eng Electroz  5 / 0   6.27 GB   2017-07-10 08:39 
bot 
робот


З нами з: 30.09.07
Востаннє: 26.05.05
Повідомлень: 22600

2018-04-04 19:58  
Тему перенесено з Анонси релізів до форуму Фільми


staf777

11FrYkT 
Модератор відео


З нами з: 20.02.11
Востаннє: 08.12.19
Повідомлень: 6382

2018-04-04 21:23  
staf777 написано:
.

покажітьно медіаінфо

staf777 
Відео Гуртом - підтримка та поширення
Відео Гуртом - підтримка та поширення


З нами з: 16.11.16
Востаннє: 08.12.19
Повідомлень: 3037

2018-04-04 21:37  
11FrYkT
General
Unique ID : 246850450404920314995074429526686542274 (0xB9B5AADC2B94C3BCA53DDAAA7CDFA9C2)
Complete name : H:\» Українське озвучення » Фільми\Комедія\Free Fire (2016) [Ukr Eng][Sub Eng][Hurtom].
Format :
Format version : Version 4 / Version 2
File size : 1.69 GiB
Duration : 1 h 30 min
Overall bit rate : 2 674 kb/s
Movie name : Free Fire (2016) [Ukr Eng][Sub Eng][Hurtom]
Encoded date : UTC 2018-04-04 17:39:56
Writing application : v9.8.0 ('Kuglblids') 64bit
Writing library : libebml v1.3.4 + v1.4.5
Cover : Yes
Attachments : cover

Video
ID : 1
Format : MPEG-4 Visual
Format profile : Advanced [email protected]
Format settings, BVOP : 1
Format settings, QPel : No
Format settings, GMC : No warppoints
Format settings, Matrix : Custom
Codec ID : V_MS/VFW/FOURCC /
Codec ID/Hint :
Duration : 1 h 30 min
Bit rate : 1 840 kb/s
Width : 720 pixels
Height : 304 pixels
Display aspect ratio : 2.35:1
Frame rate mode : Constant
Frame rate : 23.976 (24000/1001) FPS
Color space : YUV
Chroma subsampling : 4:2:0
Bit depth : 8 bits
Scan type : Progressive
Compression mode : Lossy
Bits/(Pixel*Frame) : 0.351
Stream size : 1.16 GiB (69%)
Writing library : 65
Default : Yes
Forced : No

Audio #1
ID : 2
Format : AC-3
Format/Info : Audio Coding 3
Mode extension : CM (complete main)
Format settings, Endianness : Big
Codec ID : A_AC3
Duration : 1 h 30 min
Bit rate mode : Constant
Bit rate : 384 kb/s
Channel(s) : 6 channels
Channel positions : Front: L C R, Side: L R, LFE
Sampling rate : 44.1 kHz
Frame rate : 28.711 FPS (1536 spf)
Bit depth : 16 bits
Compression mode : Lossy
Stream size : 248 MiB (14%)
Title : 5.1 @ 384 kbps
Language : Ukrainian
Default : Yes
Forced : Yes

Audio #2
ID : 3
Format : AC-3
Format/Info : Audio Coding 3
Mode extension : CM (complete main)
Format settings, Endianness : Big
Codec ID : A_AC3
Duration : 1 h 30 min
Bit rate mode : Constant
Bit rate : 448 kb/s
Channel(s) : 6 channels
Channel positions : Front: L C R, Side: L R, LFE
Sampling rate : 48.0 kHz
Frame rate : 31.250 FPS (1536 spf)
Bit depth : 16 bits
Compression mode : Lossy
Stream size : 290 MiB (17%)
Title : 5.1 @ 448 kbps
Language : English
Default : No
Forced : No

Text
ID : 4
Format : UTF-8
Codec ID : S_TEXT/UTF8
Codec ID/Info : UTF-8 Plain Text
Duration : 1 h 22 min
Bit rate : 62 b/s
Count of elements : 1194
Stream size : 37.3 KiB (0%)
Language : English
Default : No
Forced : No

11FrYkT 
Модератор відео


З нами з: 20.02.11
Востаннє: 08.12.19
Повідомлень: 6382

2018-04-04 21:45  
staf777 написано:
Codec ID : V_MS/VFW/FOURCC /

staf777 написано:
.

замініть відео в аві контейнері

Osckar1990 
Відео Гуртом - підтримка та поширення
Відео Гуртом - підтримка та поширення


З нами з: 10.12.11
Востаннє: 27.11.19
Повідомлень: 54

2018-04-05 01:21  
staf777
Спойлер із "Скріншотами", пустий!
Додайте скріншоти.

RuSya_aka_Ru 
Новенький


З нами з: 02.02.13
Востаннє: 08.12.19
Повідомлень: 2

2018-04-06 23:27  
Фільм повна лажа.
2/10
Не витрачайте півтори години на цю посередність.

Ваш часовий пояс: GMT + 2 Години

Нова тема   Відповісти