Король Артур: Легенда меча / King Arthur: Legend of the Sword (2017) Ukr/Eng | Sub Eng

Нові коментарі

Нова тема   Відповісти
Автор Повідомлення
staf777 
Відео Гуртом - підтримка та поширення
Відео Гуртом - підтримка та поширення


З нами з: 16.11.16
Востаннє: 20.05.19
Повідомлень: 2361

2018-04-04 19:57  
Король Артур: Легенда меча / King Arthur: Legend of the Sword (2017) Ukr/Eng | Sub Eng

Король Артур: Легенда меча / King Arthur: Legend of the Sword (2017) Ukr/Eng | Sub Eng


Жанр: бойовик, драма, пригоди, фентезі
Країна: США, Велика Британія, Австралія



Кінокомпанія: Warner Bros., Village Roadshow Pictures, Safehouse Pictures, Weed Road Pictures
Режисер: Ґай Річі
Актори: Чарлі Ганнем, Астрід Берже-Фрісбі, Джуд Лоу, Джимон Гунсу, Ерік Бана, Ейден Ґіллен, Аннабелль Волліс, Герміона Корфілд, Фредді Фокс, Ніл Мескелл

Сюжет:
Артур нічого не знає про своє минуле ... і не турбується про майбутнє – він живе тут і зараз. Кожен день хлопець ризикує розлучитися зі своїм життям. Його доля змінюється в той момент, коли він дістає з каменю чарівний меч Ескалібур, який і відкриває Артуру всю правду про його походження. Виявляється, він – спадкоємець убитих короля і королеви, а вбив їх рідний дядько Артура – Вортігерн ... Він незаконно захопив владу в Лондоніумі. Перед Артуром стоїть вибір: жити тим життям, до якого він звик, адже воно йому подобається, або допомогти народу скинути з престолу злого тирана. Що б він не вибрав – спокійного життя не побачить.


Тривалість: 02:06:13
Якість: (джерело: HDCLUB / Blu-Ray Remux / 1080р)
Відео:
кодек:
розмір кадру: 720x304
бітрейт: 2021 кб/с

Аудіо # 1:
мова: українська
переклад: професійний дубльований
кодек: 2.0
бітрейт: 192 кб/с

Аудіо # 2:
мова: англійська
переклад: оригінал
кодек: 5.1
бітрейт: 448 кб/с

Субтитри # 1 (Forced):
мова: українська
тип: програмні (м'які)
формат: *.srt

Субтитри # 2-5:
мова: англійська
тип: програмні (м'які)
формат: *.srt
Скріншоти



Дякую пану 11FrYkT за готовий ріп
Джерело: &
Особиста оцінка: 10 - без зайвих вагань рекомендую всім!


 Трекер:    Зареєстрований   

Завантажити / скачати фільм українською



відео для новачків



 Зареєстрований:   2018-04-08 21:44
 Розмір:   2.36 GB 
 Оцінка фільму:   8.7/10 (Голосів: 41)
   
zoomymba2012 
VIP


З нами з: 08.01.15
Востаннє: 20.05.19
Повідомлень: 602

2018-04-04 21:25  
Це ж доріжка все та ж?
Просто типу той же бдріп, тільки з англ?

staf777 
Відео Гуртом - підтримка та поширення
Відео Гуртом - підтримка та поширення


З нами з: 16.11.16
Востаннє: 20.05.19
Повідомлень: 2361

2018-04-04 21:43  
zoomymba2012
Так

don pedro 
Попереджень: 1
Попереджень: 1 


З нами з: 29.06.11
Востаннє: 20.05.19
Повідомлень: 13647

2018-04-04 21:57  
Про смішне: акторка Еліна Павелл, що виконує тут роль однієї з русалок-відьом (якщо це взагалі русалки), знову грає русалку у серіалу "Siren":
https://www.imdb.com/title/tt5615700/reference

11FrYkT 
Модератор відео


З нами з: 20.02.11
Востаннє: 20.05.19
Повідомлень: 5904

2018-04-04 22:24  
так само
staf777 
Відео Гуртом - підтримка та поширення
Відео Гуртом - підтримка та поширення


З нами з: 16.11.16
Востаннє: 20.05.19
Повідомлень: 2361

2018-04-04 22:39  
11FrYkT
General
Unique ID : 227958060975478889283458923409315582939 (0xAB7F202556310FA1A16862522289D3DB)
Complete name : H:\» Українське озвучення » Фільми\Фентезі\King Arthur Legend of the Sword (2017) [Ukr Eng][Sub Eng][Hurtom].
Format :
Format version : Version 4 / Version 2
File size : 2.34 GiB
Duration : 2 h 6 min
Overall bit rate : 2 658 kb/s
Movie name : King Arthur: Legend of the Sword (2017) [Ukr Eng][Sub Eng][Hurtom]
Encoded date : UTC 2018-04-04 16:24:23
Writing application : v9.8.0 ('Kuglblids') 64bit
Writing library : libebml v1.3.4 + v1.4.5

Video
ID : 1
Format : MPEG-4 Visual
Format profile : Advanced [email protected]
Format settings, BVOP : 1
Format settings, QPel : No
Format settings, GMC : No warppoints
Format settings, Matrix : Custom
Codec ID : V_MS/VFW/FOURCC /
Codec ID/Hint :
Duration : 2 h 6 min
Bit rate : 2 016 kb/s
Width : 720 pixels
Height : 304 pixels
Display aspect ratio : 2.35:1
Frame rate mode : Constant
Frame rate : 23.976 (24000/1001) FPS
Color space : YUV
Chroma subsampling : 4:2:0
Bit depth : 8 bits
Scan type : Progressive
Compression mode : Lossy
Bits/(Pixel*Frame) : 0.384
Stream size : 1.78 GiB (76%)
Writing library : 65
Default : Yes
Forced : No

Audio #1
ID : 2
Format : AC-3
Format/Info : Audio Coding 3
Mode extension : CM (complete main)
Format settings, Endianness : Big
Codec ID : A_AC3
Duration : 2 h 6 min
Bit rate mode : Constant
Bit rate : 192 kb/s
Channel(s) : 2 channels
Channel positions : Front: L R
Sampling rate : 48.0 kHz
Frame rate : 31.250 FPS (1536 spf)
Bit depth : 16 bits
Compression mode : Lossy
Stream size : 173 MiB (7%)
Title : [iTunes]
Language : Ukrainian
Default : Yes
Forced : Yes

Audio #2
ID : 3
Format : AC-3
Format/Info : Audio Coding 3
Mode extension : CM (complete main)
Format settings, Endianness : Big
Codec ID : A_AC3
Duration : 2 h 6 min
Bit rate mode : Constant
Bit rate : 448 kb/s
Channel(s) : 6 channels
Channel positions : Front: L C R, Side: L R, LFE
Sampling rate : 48.0 kHz
Frame rate : 31.250 FPS (1536 spf)
Bit depth : 16 bits
Compression mode : Lossy
Stream size : 404 MiB (17%)
Language : English
Default : No
Forced : No

Text #1
ID : 4
Format : UTF-8
Codec ID : S_TEXT/UTF8
Codec ID/Info : UTF-8 Plain Text
Duration : 9 min 56 s
Bit rate : 4 b/s
Count of elements : 6
Stream size : 321 Bytes (0%)
Language : Ukrainian
Default : Yes
Forced : Yes

Text #2
ID : 5
Format : UTF-8
Codec ID : S_TEXT/UTF8
Codec ID/Info : UTF-8 Plain Text
Duration : 1 h 55 min
Bit rate : 45 b/s
Count of elements : 1254
Stream size : 38.2 KiB (0%)
Language : English
Default : No
Forced : No

Text #3
ID : 6
Format : UTF-8
Codec ID : S_TEXT/UTF8
Codec ID/Info : UTF-8 Plain Text
Duration : 1 h 56 min
Bit rate : 49 b/s
Count of elements : 1451
Stream size : 42.5 KiB (0%)
Language : English
Default : No
Forced : No

Text #4
ID : 7
Format : UTF-8
Codec ID : S_TEXT/UTF8
Codec ID/Info : UTF-8 Plain Text
Duration : 1 h 56 min
Bit rate : 61 b/s
Count of elements : 1419
Stream size : 52.2 KiB (0%)
Language : English
Default : No
Forced : No

11FrYkT 
Модератор відео


З нами з: 20.02.11
Востаннє: 20.05.19
Повідомлень: 5904

2018-04-04 22:46  
staf777 , аналогічно
staf777 
Відео Гуртом - підтримка та поширення
Відео Гуртом - підтримка та поширення


З нами з: 16.11.16
Востаннє: 20.05.19
Повідомлень: 2361

2018-04-08 10:48  
11FrYkT
Все роблю як вказано тут https://toloka.to/t56295#988141 - наче іде все ок а потім пише -виявлено блокування доступу

11FrYkT 
Модератор відео


З нами з: 20.02.11
Востаннє: 20.05.19
Повідомлень: 5904

2018-04-08 16:34  
staf777 написано:
Все роблю як вказано тут https://toloka.to/t56295#988141 - наче іде все ок а потім пише -виявлено блокування доступу

розпишіть покроково в ПП що за чим ви робите

Zakon_nik 
Новенький


З нами з: 03.03.13
Востаннє: 17.05.18
Повідомлень: 8

2018-04-12 23:45  
такий трохи шизанутий на всю голову фільм, але прикольний. Логіку не шукайте бо відсутня )))
Ваш часовий пояс: GMT + 2 Години

Нова тема   Відповісти