Народжена вільною / Born Free (1966) Ukr/Eng | Sub Eng

Нові коментарі

Нова тема   Відповісти
Автор Повідомлення
staf777 
Попереджень: 1
Попереджень: 1 


З нами з: 16.11.16
Востаннє: 16.12.18
Повідомлень: 1919

2018-04-04 14:44  
Народжена вільною / Born Free (1966) Ukr/Eng | Sub Eng

Народжена вільною / Born Free (1966) Ukr/Eng | Sub Eng


Жанр: сімейний, драма, пригодницький
Країна: Велика Британія, США



Кінокомпанія: Columbia Pictures
Режисер: Джеймс Гілл
Актори: Вірджінія МакКена, Білл Траверс, Джефрі Кін, Пітер Лукой

Сюжет:
Фільм був знятий в Африканській савані за однойменним бестселером відомої письменниці і натураліста Джой Адамсон.

Стрічка розповідає про долю левиці, що дитинчам потрапила до подружжя Адамсон. Вони не тільки рятують її від неминучої загибелі, а й, виростивши її, повертають назад в дику природу тому, що вона була народжена вільною.

Авторам вдалося чудово відобразити і передати за допомогою засобів кіно красу природи і тваринного світу Кенії.


Тривалість: 01:35:06
Якість:
Відео:
кодек:
розмір кадру: 720x304
бітрейт: 1883 кб/с

Аудіо # 1:
мова: українська
переклад: двоголосий закадровий
кодек: 2.0
бітрейт: 192 кб/с

Аудіо # 2:
мова: англійська
переклад: оригінал
кодек: 2.0
бітрейт: 96 кб/с

Джерело озвучення:


Субтитри # 1-3: (Full, SDH, SDH-Colored)
мова: англійська
тип: програмні (м'які)
формат: *.srt
Скріншоти



Джерело: &
Особиста оцінка: 0 - не дивився


Срібний реліз (на рейтинг впливає 50% завантаженого)
 Трекер:    Зареєстрований   

Завантажити / скачати фільм українською



відео для новачків



 Зареєстрований:   2018-04-07 15:02
 Розмір:   1.45 GB 
 Оцінка фільму:   8.8/10 (Голосів: 8)
   
Інші релізи
   Народжена вільною / Born Free (1966) AVC Ukr/Eng | Sub Eng staf777  1 / 0   2.33 GB   2018-06-23 16:36 
   Народжена вільною / Born Free (1966) NemoInFire  1 / 0   1.37 GB   2012-07-02 21:51 
Electroz 
Відео Гуртом - підтримка та поширення
Відео Гуртом - підтримка та поширення


З нами з: 18.09.14
Востаннє: 16.12.18
Повідомлень: 3182

2018-04-05 15:34  
staf777 написано:

staf777 написано:
кодек:

Чому перевірено?

igor911 
Відео Гуртом
Відео Гуртом


З нами з: 18.01.08
Востаннє: 16.12.18
Повідомлень: 11618

2018-04-05 17:42  
staf777, треба перепакувати назад в avi - основна вимога до релізів - сумісність зі старими ДВД програвачами, а вони не знають.
staf777 
Попереджень: 1
Попереджень: 1 


З нами з: 16.11.16
Востаннє: 16.12.18
Повідомлень: 1919

2018-04-05 17:58  
igor911
Встановив VirtualDub при відкриті відео файла - чорний екран та надпис missing codec

igor911 
Відео Гуртом
Відео Гуртом


З нами з: 18.01.08
Востаннє: 16.12.18
Повідомлень: 11618

2018-04-05 18:56  
staf777 написано:
VirtualDub

будь уважнішим, я ж тобі ранком писав про VirtualDubMod https://toloka.to/t36405 і відкривати в ньому треба avi, яке ти завантажив з іншого трекера + додати укр. доріжку. Інструкції мають бути як на Толоці, так і в неті.

staf777 
Попереджень: 1
Попереджень: 1 


З нами з: 16.11.16
Востаннє: 16.12.18
Повідомлень: 1919

2018-04-05 19:15  
igor911

igor911 
Відео Гуртом
Відео Гуртом


З нами з: 18.01.08
Востаннє: 16.12.18
Повідомлень: 11618

2018-04-05 19:19  
...там пише, що в тебе немає 'у, треба встановити. Або окремо або в складі, наприклад K-Lite Codec Pack.
staf777 
Попереджень: 1
Попереджень: 1 


З нами з: 16.11.16
Востаннє: 16.12.18
Повідомлень: 1919

2018-04-05 19:40  
igor911
Встановив - два чорних екрана

igor911 
Відео Гуртом
Відео Гуртом


З нами з: 18.01.08
Востаннє: 16.12.18
Повідомлень: 11618

2018-04-05 19:41  
staf777 написано:
два чорних екрана

значить все працює добре Happy далі гугли.

krigg070 
Відео Гуртом - фільмокрай
Відео Гуртом - фільмокрай


З нами з: 29.10.14
Востаннє: 16.12.18
Повідомлень: 1421

2018-04-05 19:50  
Краще встановити ffmpeg і не мучитися.
igor911 
Відео Гуртом
Відео Гуртом


З нами з: 18.01.08
Востаннє: 16.12.18
Повідомлень: 11618

2018-04-05 19:51  
krigg070 написано:
Краще встановити ffmpeg

в даному випадку це космос

krigg070 
Відео Гуртом - фільмокрай
Відео Гуртом - фільмокрай


З нами з: 29.10.14
Востаннє: 16.12.18
Повідомлень: 1421

2018-04-05 19:55  
igor911
ОК, тоді - avidemux. Воно аналогічне до дабу і в рази краще. Мусить схавати з кодеком .

leicheman 
Відео Гуртом - підтримка та поширення
Відео Гуртом - підтримка та поширення


З нами з: 03.07.14
Востаннє: 16.12.18
Повідомлень: 3003

2018-04-05 20:06  
krigg070 написано:
ОК, тоді - avidemux. Воно аналогічне до дабу і в рази краще. Мусить схавати з кодеком .

+
дуже лего, закидуєте доріжку в мквтул, а потім 5 секунд прогнати уже в авідемуксі обравши усе копі і контейнер аві.

igor911 
Відео Гуртом
Відео Гуртом


З нами з: 18.01.08
Востаннє: 16.12.18
Повідомлень: 11618

2018-04-05 20:09  
leicheman написано:
а потім прогнати уже в авідемуксі обравши усе копі і контейнер аві

ну не знаю, переганяти з пустого в порожнє по кілька разів...

Додано через 51 секунду:

якщо можна за тих самих 5 сек зробити одразу

staf777 
Попереджень: 1
Попереджень: 1 


З нами з: 16.11.16
Востаннє: 16.12.18
Повідомлень: 1919

2018-04-05 21:08  
Не зрозумів як VirtualDub додавати окремі доріжки і саби
igor911 
Відео Гуртом
Відео Гуртом


З нами з: 18.01.08
Востаннє: 16.12.18
Повідомлень: 11618

2018-04-05 21:14  
staf777, ок, пробуй інші програми https://toloka.to/t89089#988226

Додано через 1 хвилину 3 секунди:

і саби йдуть окремими файлами, ознайомся з теорією.

Додано через 38 секунд:

якщо вперше стикнувся з контейнером avi

leicheman 
Відео Гуртом - підтримка та поширення
Відео Гуртом - підтримка та поширення


З нами з: 03.07.14
Востаннє: 16.12.18
Повідомлень: 3003

2018-04-06 09:47  
igor911 написано:
ну не знаю, переганяти з пустого в порожнє по кілька разів...

Ну це я так роблю. А взагалі можно у вкладці аудіо додати доріжку, але тільки 4 штуки.
Також там без проблем можна додати субтитри.

staf777 
Попереджень: 1
Попереджень: 1 


З нами з: 16.11.16
Востаннє: 16.12.18
Повідомлень: 1919

2018-04-06 18:49  
Починаю кодувати все іде гаразд а потім така картина

igor911 
Відео Гуртом
Відео Гуртом


З нами з: 18.01.08
Востаннє: 16.12.18
Повідомлень: 11618

2018-04-06 20:28  
staf777 написано:
Починаю кодувати

не потрібно нічого кодувати, це ж вже готовий ріп. після додавання та встановлення укр. доріжки за замовчанням вибирай "файл - зберегти як", а відорежим - "прямопотокове копіювання".

staf777 
Попереджень: 1
Попереджень: 1 


З нами з: 16.11.16
Востаннє: 16.12.18
Повідомлень: 1919

2018-04-06 20:56  
igor911
General
Complete name : H:\RELIZI\Born Free (1966) [Ukr Eng][Sub Eng][Hurtom].avi
Format : AVI
Format/Info : Audio Video Interleave
File size : 1.45 GiB
Duration : 1 h 35 min
Overall bit rate : 2 185 kb/s
Movie name : Рожденная свободной / Born Free (1966)
Director : yaroslaigor
Genre : драма, приключения, семейный
Writing application : VirtualDubModUkr 1.5.10.2 (build 2542/release)
Writing library : VirtualDubMod build 2542/release
Copyright : HQCLUB
Comment : 16.09.2016

Video
ID : 0
Format : MPEG-4 Visual
Format profile : Advanced [email protected]
Format settings, BVOP : 1
Format settings, QPel : No
Format settings, GMC : No warppoints
Format settings, Matrix : Custom
Codec ID :
Codec ID/Hint :
Duration : 1 h 35 min
Bit rate : 1 883 kb/s
Width : 720 pixels
Height : 304 pixels
Display aspect ratio : 2.35:1
Frame rate : 23.976 (24000/1001) FPS
Color space : YUV
Chroma subsampling : 4:2:0
Bit depth : 8 bits
Scan type : Progressive
Compression mode : Lossy
Bits/(Pixel*Frame) : 0.359
Stream size : 1.25 GiB (86%)
Writing library : 65

Audio #1
ID : 1
Format : AC-3
Format/Info : Audio Coding 3
Mode extension : CM (complete main)
Format settings, Endianness : Big
Codec ID : 2000
Duration : 1 h 35 min
Bit rate mode : Constant
Bit rate : 192 kb/s
Channel(s) : 2 channels
Channel positions : Front: L R
Sampling rate : 48.0 kHz
Frame rate : 31.250 FPS (1536 spf)
Bit depth : 16 bits
Compression mode : Lossy
Stream size : 131 MiB (9%)
Alignment : Split accross interleaves
Interleave, duration : 42 ms (1.00 video frame)
Interleave, preload duration : 500 ms
Title : [UA-DVO]

Audio #2
ID : 2
Format : AC-3
Format/Info : Audio Coding 3
Mode extension : CM (complete main)
Format settings, Endianness : Big
Codec ID : 2000
Duration : 1 h 35 min
Bit rate mode : Constant
Bit rate : 96.0 kb/s
Channel(s) : 1 channel
Channel positions : Front: C
Sampling rate : 48.0 kHz
Frame rate : 31.250 FPS (1536 spf)
Bit depth : 16 bits
Compression mode : Lossy
Stream size : 65.3 MiB (4%)
Alignment : Split accross interleaves
Interleave, duration : 42 ms (1.00 video frame)
Interleave, preload duration : 500 ms
Title : [Original]

igor911 
Відео Гуртом
Відео Гуртом


З нами з: 18.01.08
Востаннє: 16.12.18
Повідомлень: 11618

2018-04-06 21:04  
staf777 написано:
Movie name : Рожденная свободной / Born Free (1966)

бажано також додавати українську назву (Потоки - коментарі)

Додано через 43 секунди:

а так наче вийшов дійсно avi Happy

Додано через 2 хвилини 43 секунди:

staf777 написано:
Genre : драма, приключения, семейный

теж потребує редагування

staf777 написано:

Copyright : HQCLUB
Comment : 16.09.2016

треба додати Hurtom, адже доріжка була зроблена в нас.

staf777 
Попереджень: 1
Попереджень: 1 


З нами з: 16.11.16
Востаннє: 16.12.18
Повідомлень: 1919

2018-04-07 08:11  
General
Complete name : H:\RELIZI\Born Free (1966) [Ukr Eng][Sub Eng][Hurtom]\Born Free (1966) [Ukr Eng][Sub Eng][Hurtom].avi
Format : AVI
Format/Info : Audio Video Interleave
File size : 1.45 GiB
Duration : 1 h 35 min
Overall bit rate : 2 185 kb/s
Movie name : Народжена вільною / Born Free (1966)
Director : yaroslaigor
Writing application : VirtualDubModUkr 1.5.10.2 (build 2542/release)
Writing library : VirtualDubMod build 2542/release
Copyright : HQCLUB HURTOM
Comment : 16.09.2016

Video
ID : 0
Format : MPEG-4 Visual
Format profile : Advanced [email protected]
Format settings : BVOP1 / Custom Matrix
Format settings, BVOP : 1
Format settings, QPel : No
Format settings, GMC : No warppoints
Format settings, Matrix : Custom
Codec ID :
Codec ID/Hint :
Duration : 1 h 35 min
Bit rate : 1 883 kb/s
Width : 720 pixels
Height : 304 pixels
Display aspect ratio : 2.35:1
Frame rate : 23.976 (24000/1001) FPS
Color space : YUV
Chroma subsampling : 4:2:0
Bit depth : 8 bits
Scan type : Progressive
Compression mode : Lossy
Bits/(Pixel*Frame) : 0.359
Stream size : 1.25 GiB (86%)
Writing library : 65

Audio #1
ID : 1
Format : AC-3
Format/Info : Audio Coding 3
Codec ID : 2000
Duration : 1 h 35 min
Bit rate mode : Constant
Bit rate : 192 kb/s
Channel(s) : 2 channels
Channel positions : Front: L R
Sampling rate : 48.0 kHz
Frame rate : 31.250 FPS (1536 SPF)
Bit depth : 16 bits
Compression mode : Lossy
Stream size : 131 MiB (9%)
Alignment : Split accross interleaves
Interleave, duration : 42 ms (1.00 video frame)
Interleave, preload duratio : 500 ms
Title : [UA-DVO-1+1]
Service kind : Complete Main

Audio #2
ID : 2
Format : AC-3
Format/Info : Audio Coding 3
Codec ID : 2000
Duration : 1 h 35 min
Bit rate mode : Constant
Bit rate : 96.0 kb/s
Channel(s) : 1 channel
Channel positions : Front: C
Sampling rate : 48.0 kHz
Frame rate : 31.250 FPS (1536 SPF)
Bit depth : 16 bits
Compression mode : Lossy
Stream size : 65.3 MiB (4%)
Alignment : Split accross interleaves
Interleave, duration : 42 ms (1.00 video frame)
Interleave, preload duratio : 500 ms
Service kind : Complete Main

Ваш часовий пояс: GMT + 2 Години

Нова тема   Відповісти