Первісне зло / Primeval (2007) AVC Ukr/Eng | sub Eng

Нові коментарі

Нова тема   Відповісти
Автор Повідомлення
staf777 
Відео Гуртом - підтримка та поширення
Відео Гуртом - підтримка та поширення


З нами з: 16.11.16
Востаннє: 23.04.19
Повідомлень: 2285

2018-04-03 22:04  
Первісне зло / Primeval (2007) AVC Ukr/Eng | sub Eng

Первісне зло / Primeval (2007) AVC Ukr/Eng | sub Eng
Оригінальний постер

Первісне зло / Primeval (2007) AVC Ukr/Eng | sub Eng
Жанр: жахи, трилер
Країна: США



Кінокомпанія: Hollywood Pictures, Pariah, Sarah James Productions
Актори: Домінік Перселл, Брук Ленгтон, Орландо Джонс, Юрген Прохнов, Гідеон Емері, Габріель Малема, Лінда Мпондо, Кевін Отто
Режисер: Майкл Кетлман
Сюжет:
У нетрях африканських джунглів залякані тубільці розповідають про восьмиметрового крокодила-людожера, який привчився до смаку людського м'яса, поїдаючи трупи жертв місцевої громадянської війни. Команда телевізійників із США вирушає на пошуки рептилії, не припускаючи, що окрім кровожерної тварюки їм доведеться зіткнутися і з людоїдами в людській подобі.


Тривалість: 01:34:12
Якість: AVC
Відео:
кодек:
розмір кадру: 1024x436
бітрейт: 3371 кб/с

Аудіо # 1:
мова: українська
переклад: професійний дубльований
кодек: 5.1
бітрейт: 384 кб/с

Аудіо # 2:
мова: англійська
переклад: оригінал
кодек: 5.1
бітрейт: 384 кб/с

Субтитри:
мова: англійська
тип: програмні (м'які)
формат: *.srt
Info
General
Unique ID : 223630921347352601538891029567607625766 (0xA83DBFB0CAAD13F6AE6FA05943675826)
Complete name : H:\RELIZI\ Primeval (2007) AVC [Ukr Eng][Sub Eng][Hurtom].
Format :
Format version : Version 4 / Version 2
File size : 2.72 GiB
Duration : 1 h 34 min
Overall bit rate : 4 139 kb/s
Movie name : Primeval (2007) AVC [Ukr Eng][Sub Eng][Hurtom]
Encoded date : UTC 2018-04-03 18:45:56
Writing application : v9.8.0 ('Kuglblids') 64bit
Writing library : libebml v1.3.4 + v1.4.5
Cover : Yes
Attachments : cover.jpg

Video
ID : 1
Format : AVC
Format/Info : Advanced Video Codec
Format profile : [email protected]
Format settings, CABAC : Yes
Format settings, ReFrames : 9 frames
Codec ID : V_MPEG4/ISO/AVC
Duration : 1 h 34 min
Bit rate : 3 371 kb/s
Width : 1 024 pixels
Height : 436 pixels
Display aspect ratio : 2.35:1
Frame rate mode : Constant
Frame rate : 23.976 (24000/1001) FPS
Color space : YUV
Chroma subsampling : 4:2:0
Bit depth : 8 bits
Scan type : Progressive
Bits/(Pixel*Frame) : 0.315
Stream size : 2.22 GiB (81%)
Writing library : core 144 r2525 40bb568
Encoding settings : cabac=1 / ref=9 / deblock=1:-3:-3 / analyse=0x3:0x113 / me=umh / subme=11 / psy=1 / psy_rd=1.00:0.20 / mixed_ref=1 / me_range=48 / chroma_me=0 / trellis=2 / 8x8dct=1 / cqm=0 / deadzone=21,11 / fast_pskip=0 / chroma_qp_offset=-3 / threads=6 / lookahead_threads=1 / sliced_threads=0 / nr=0 / decimate=0 / interlaced=0 / bluray_compat=0 / constrained_intra=0 / bframes=9 / b_pyramid=2 / b_adapt=2 / b_bias=0 / direct=3 / weightb=1 / open_gop=0 / weightp=2 / keyint=240 / keyint_min=23 / scenecut=40 / intra_refresh=0 / rc_lookahead=40 / rc=2pass / mbtree=0 / bitrate=3371 / ratetol=1.0 / qcomp=0.60 / qpmin=0 / qpmax=69 / qpstep=4 / cplxblur=20.0 / qblur=0.5 / vbv_maxrate=14000 / vbv_bufsize=14000 / nal_hrd=none / filler=0 / ip_ratio=1.40 / pb_ratio=1.30 / aq=3:0.80
Language : English
Default : Yes
Forced : No

Audio #1
ID : 2
Format : AC-3
Format/Info : Audio Coding 3
Mode extension : CM (complete main)
Format settings, Endianness : Big
Codec ID : A_AC3
Duration : 1 h 34 min
Bit rate mode : Constant
Bit rate : 384 kb/s
Channel(s) : 6 channels
Channel positions : Front: L C R, Side: L R, LFE
Sampling rate : 48.0 kHz
Frame rate : 31.250 FPS (1536 spf)
Bit depth : 16 bits
Compression mode : Lossy
Stream size : 259 MiB (9%)
Title : [UA-DUB]
Language : Ukrainian
Default : Yes
Forced : Yes

Audio #2
ID : 3
Format : AC-3
Format/Info : Audio Coding 3
Mode extension : CM (complete main)
Format settings, Endianness : Big
Codec ID : A_AC3
Duration : 1 h 34 min
Bit rate mode : Constant
Bit rate : 384 kb/s
Channel(s) : 6 channels
Channel positions : Front: L C R, Side: L R, LFE
Sampling rate : 48.0 kHz
Frame rate : 31.250 FPS (1536 spf)
Bit depth : 16 bits
Compression mode : Lossy
Stream size : 259 MiB (9%)
Language : English
Default : No
Forced : No

Text
ID : 4
Format : UTF-8
Codec ID : S_TEXT/UTF8
Codec ID/Info : UTF-8 Plain Text
Duration : 1 h 28 min
Bit rate : 40 b/s
Count of elements : 851
Stream size : 26.3 KiB (0%)
Language : English
Default : No
Forced : No

Menu
00:00:00.000 : en:Chapter 01
00:04:35.399 : en:Chapter 02
00:08:28.382 : en:Chapter 03
00:13:21.717 : en:Chapter 04
00:16:25.776 : en:Chapter 05
00:24:58.455 : en:Chapter 06
00:30:27.200 : en:Chapter 07
00:36:08.623 : en:Chapter 08
00:42:03.978 : en:Chapter 09
00:48:00.419 : en:Chapter 10
00:51:25.498 : en:Chapter 11
00:57:55.972 : en:Chapter 12
01:09:21.282 : en:Chapter 13
01:17:03.869 : en:Chapter 14
01:22:09.966 : en:Chapter 15
01:27:00.840 : en:Chapter 16
01:34:12.063 : en:Chapter 17
Скріншоти





Джерело: &
Особиста оцінка: 0 - не дивився
Первісне зло / Primeval (2007) AVC Ukr/Eng | sub Eng


 Трекер:    Зареєстрований   

Завантажити / скачати фільм українською



відео для новачків



 Зареєстрований:   2018-04-03 22:05
 Розмір:   2.72 GB 
 Оцінка фільму:   8.5/10 (Голосів: 6)
   
Інші релізи
   Первісне зло / Primeval (2007) 1080p Ukr/Eng | sub Eng staf777  1 / 0   10.45 GB   2017-01-19 18:38 
   Первісне зло / Primeval (2007) Ukr/Eng | sub Eng JACKUS  0 / 1   1.71 GB   2011-02-06 16:59 
bot 
робот


З нами з: 30.09.07
Востаннє: 26.05.05
Повідомлень: 21238

2018-04-03 22:05  
Тему перенесено з Анонси релізів до форуму Фільми


staf777

Ваш часовий пояс: GMT + 2 Години

Нова тема   Відповісти