2012 / 2012 (2009) 1080p | Open Matte Ukr/Eng | Sub Eng

Нові коментарі

Нова тема   Відповісти
Автор Повідомлення
staf777 
Попереджень: 1
Попереджень: 1 


З нами з: 16.11.16
Востаннє: 24.06.18
Повідомлень: 1150

2018-04-03 17:16  
2012 / 2012 (2009) 1080p | Open Matte Ukr/Eng | Sub Eng

2012 / 2012 (2009) 1080p | Open Matte Ukr/Eng | Sub Eng


Жанр: фантастика, бойовик, трилер, драма
Країна: Канада, США



Кінокомпанія: Columbia Pictures
Режисер: Роланд Еммеріх
Актори: Джон Кьюсак, Тенді Ньютон, Аманда Піт, Чіветель Еджіофор, Вуді Харрельсон, Денні Гловер, Олівер Плат, Морган Лілі

Сюжет:
Згідно з календарем індіанців Майя, в 2012 році планети сонячної системи опиняться на одній лінії, що призведе до глобальних природних катаклізмів: сильні землетруси, цунамі і виверження вулканів перетворять країни і цілі континенти в руїни. Нещодавно вчені підтвердили, що цей міф може стати реальністю.


Тривалість: 02:38:03
Якість: 1080p Amazon
Відео:
кодек:
розмір кадру: 1920x1080
бітрейт: 8483 кб/с

Аудіо # 1:
мова: українська
переклад: професійний дубльований
кодек: 5.1
бітрейт: 384 кб/с

Аудіо # 2:
мова: англійська
переклад: оригінал
кодек: 5.1
бітрейт: 640 кб/с

Субтитри # 1-2:
мова: англійська
тип: програмні (м'які)
формат: *.srt
Info
General
Unique ID : 207864796231855689557448433902263025286 (0x9C614DB51ACCAB0AAB12275A89D53E86)
Complete name : H:\» HD українською » Фільми в HD\Фантастика\2012 (2009) 1080p [Open Matte] [Ukr Eng][Sub Eng][Hurtom].
Format :
Format version : Version 4 / Version 2
File size : 10.5 GiB
Duration : 2 h 38 min
Overall bit rate mode : Variable
Overall bit rate : 9 511 kb/s
Movie name : 2012 (2009) 1080p Open Matte [Ukr Eng][Sub Eng][Hurtom]
Encoded date : UTC 2018-04-03 13:23:40
Writing application : v9.8.0 ('Kuglblids') 64bit
Writing library : libebml v1.3.4 + v1.4.5
Cover : Yes
Attachments : cover.jpg

Video
ID : 1
Format : AVC
Format/Info : Advanced Video Codec
Format profile : [email protected]
Format settings, CABAC : Yes
Format settings, ReFrames : 4 frames
Codec ID : V_MPEG4/ISO/AVC
Duration : 2 h 38 min
Bit rate mode : Variable
Bit rate : 8 483 kb/s
Maximum bit rate : 15.0 Mb/s
Width : 1 920 pixels
Height : 1 080 pixels
Display aspect ratio : 16:9
Frame rate mode : Constant
Frame rate : 23.976 (24000/1001) FPS
Color space : YUV
Chroma subsampling : 4:2:0
Bit depth : 8 bits
Scan type : Progressive
Bits/(Pixel*Frame) : 0.171
Stream size : 9.37 GiB (89%)
Title : Amazon
Language : English
Default : Yes
Forced : No
Color range : Limited
Color primaries : BT.709
Transfer characteristics : BT.709
Matrix coefficients : BT.709

Audio #1
ID : 2
Format : AC-3
Format/Info : Audio Coding 3
Mode extension : CM (complete main)
Format settings, Endianness : Big
Codec ID : A_AC3
Duration : 2 h 38 min
Bit rate mode : Constant
Bit rate : 384 kb/s
Channel(s) : 6 channels
Channel positions : Front: L C R, Side: L R, LFE
Sampling rate : 48.0 kHz
Frame rate : 31.250 FPS (1536 spf)
Bit depth : 16 bits
Compression mode : Lossy
Stream size : 434 MiB (4%)
Title : DUB - Ukrainian
Language : Ukrainian
Default : Yes
Forced : Yes

Audio #2
ID : 3
Format : E-AC-3
Format/Info : Enhanced Audio Coding 3
Format settings, Endianness : Big
Codec ID : A_EAC3
Duration : 2 h 38 min
Bit rate mode : Constant
Bit rate : 640 kb/s
Channel(s) : 6 channels
Channel positions : Front: L C R, Side: L R, LFE
Sampling rate : 48.0 kHz
Frame rate : 187.500 FPS (256 spf)
Compression mode : Lossy
Stream size : 724 MiB (7%)
Title : English
Language : English
Default : No
Forced : No

Text #1
ID : 4
Format : UTF-8
Codec ID : S_TEXT/UTF8
Codec ID/Info : UTF-8 Plain Text
Duration : 2 h 26 min
Bit rate : 55 b/s
Count of elements : 1917
Stream size : 59.9 KiB (0%)
Title : English Full
Language : English
Default : No
Forced : No

Text #2
ID : 5
Format : UTF-8
Codec ID : S_TEXT/UTF8
Codec ID/Info : UTF-8 Plain Text
Duration : 2 h 36 min
Bit rate : 64 b/s
Count of elements : 2495
Stream size : 74.3 KiB (0%)
Title : English Full SDH
Language : English
Default : No
Forced : No
Скріншоти



Джерело: &
Особиста оцінка: 0 - не дивився


 Трекер:    Зареєстрований   

Завантажити / скачати фільм українською



відео для новачків



 Зареєстрований:   2018-04-03 17:16
 Розмір:   10.5 GB 
 Оцінка фільму:   7.8/10 (Голосів: 10)
   
Інші релізи
   2012 / 2012 (2009) AVC Drool  6 / 0   2.15 GB   2011-07-26 17:11 
   2012 / 2012 (2009) Ukr/Eng | Sub Eng MutuLI  3 / 0   2.92 GB   2011-01-08 11:36 
   2012 / 2012 (2009) 720p Ukr/Rus/Eng | Sub Rus/Eng kszitadel  1 / 0   9.74 GB   2010-02-01 21:57 
   2012 / 2012 (2009) 1080p Ukr/Eng bbuzzy  3 / 0   15.43 GB   2010-01-28 13:19 
Electroz 
Відео Гуртом - підтримка та поширення
Відео Гуртом - підтримка та поширення


З нами з: 18.09.14
Востаннє: 24.06.18
Повідомлень: 2774

2018-04-03 17:25  
staf777 написано:
бітрейт: 384 кб/с

На блюрі присутній звук з бітрейтом 448 кБ/с + примусові субтитри.

staf777 
Попереджень: 1
Попереджень: 1 


З нами з: 16.11.16
Востаннє: 24.06.18
Повідомлень: 1150

2018-04-03 17:55  
Electroz написано:
На блюрі

До bluebird вже не маю доступу

igor911 
Відео Гуртом
Відео Гуртом


З нами з: 18.01.08
Востаннє: 24.06.18
Повідомлень: 10325

2018-04-03 18:14  
staf777, Happy у сусідньому релізі авц є 448
staf777 
Попереджень: 1
Попереджень: 1 


З нами з: 16.11.16
Востаннє: 24.06.18
Повідомлень: 1150

2018-04-03 18:25  
Цитата:
у сусідньому релізі авц є 448
- там
різниця 384 від 448 майже ніякий

11FrYkT 
Модератор відео


З нами з: 20.02.11
Востаннє: 23.06.18
Повідомлень: 4722

2018-04-03 20:51  
staf777 написано:

- там
різниця 384 від 448 майже ніякий

так, але коли її пережимали з 448 то якість явно не покращилась, я не можу ніяк зрозуміти чим Ви керуєтесь коли створюєте реліз? Ну поросіть когось хто вміє зводити звук хай піджене, якби це був фільм новинка то зрозуміло чому швидше викласти, а тут куди спішити?

Skiff_1956 
Свій


З нами з: 14.09.14
Востаннє: 23.06.18
Повідомлень: 59

2018-04-03 21:52  
staf777 написано:
До bluebird вже не маю доступу


Як не має, а це що http://bluebird-hd.org

staf777 
Попереджень: 1
Попереджень: 1 


З нами з: 16.11.16
Востаннє: 24.06.18
Повідомлень: 1150

2018-04-04 15:47  
Видаляйте
zoomymba2012 
VIP


З нами з: 08.01.15
Востаннє: 23.06.18
Повідомлень: 415

2018-04-04 21:23  
Skiff_1956
Може бан за щось.
Ось мене забанили за неактивність в роздачі.
Суровий трекер...

Ваш часовий пояс: GMT + 2 Години

Нова тема   Відповісти