Зачароване королівство / Tin Man (2007) 720p Ukr/Eng

Нові коментарі

Нова тема   Відповісти
Автор Повідомлення
staf777 
Відео Гуртом - підтримка та поширення
Відео Гуртом - підтримка та поширення


З нами з: 16.11.16
Востаннє: 05.12.20
Повідомлень: 4621

2018-04-03 15:11  
Зачароване королівство / Tin Man (2007) 720p Ukr/Eng

Зачароване королівство / Tin Man (2007) 720p Ukr/Eng
Слогани:
«Follow a new yellow brick road.»


Жанр: пригодницький, фентезі, фантастика, вестерн
Країна: США



Кіностудія / кінокомпанія: Imagiquest Entertainment, RHI Entertainment, Reunion Pictures
Режисер: Нік Віллінг (Nick Willing)
Актори: Зої Дешанель (Zooey Deschanel), Алан Каммінг (Alan Cumming), Ніл МакДонаф (Neal McDonough), Кетлін Робертсон (Kathleen Robertson), Рауль Трухільо (Raoul Trujillo), Каллум Кіт Ренні (Callum Keith Rennie), Річард Дрейфус (Richard Dreyfuss)...

Сюжет:
Діджей була простою студенткою, яка працює в кафе на півставки і вічно відчуває себе не на своєму місці. Але її життя змінилося докорінно після того, як їй почали снитися фантастичні сни і дивні люди напали на її сім'ю з метою викрасти дівчину. Щоб врятувати їй життя, батьки кинули її в торнадо, яке перенесло діджей в потойбічний світ, повний темної магії і загадкових істот. Тепер у компанії своїх нових приятелів вона намагається відшукати свою справжню матір...


Бюджет: 19 000 000 доларів
Перелік серій:
1) Into the Storm
2) Search for the Emerald
3) Tin Man
Назва фільму у інших країнах
A Bádogember
Угорщина


Deux princesses pour un royaume
Франція


I katastrofi tou Oz
Греція


Ritorno al mondo di Oz
Італія


Tin Man - O Vingador de Oz
Португалія


Железный человек / Заколдованное королевство
Росія
Media info
Серія 1
General
Unique ID : 220002234959101196457896427749950364448 (0xA582E3A3871872769508105A639C1B20)
Complete name : H:\RELIZI\Tin Man (2007) 720p [Ukr Eng][Hurtom]\Tin Man (2007) [1] Into the Storm 720p [Ukr Eng][Hurtom].
Format :
Format version : Version 4 / Version 2
File size : 5.16 GiB
Duration : 1 h 31 min
Overall bit rate : 8 076 kb/s
Movie name : Tin Man (2007) [1) Into the Storm 720p [Hurtom]
Encoded date : UTC 2018-04-03 08:33:20
Writing application : v9.8.0 ('Kuglblids') 64bit
Writing library : libebml v1.3.4 + v1.4.5

Video
ID : 1
Format : AVC
Format/Info : Advanced Video Codec
Format profile : [email protected]
Format settings, CABAC : Yes
Format settings, ReFrames : 8 frames
Codec ID : V_MPEG4/ISO/AVC
Duration : 1 h 31 min
Bit rate : 6 180 kb/s
Width : 1 280 pixels
Height : 720 pixels
Display aspect ratio : 16:9
Frame rate mode : Constant
Frame rate : 23.976 (24000/1001) FPS
Color space : YUV
Chroma subsampling : 4:2:0
Bit depth : 8 bits
Scan type : Progressive
Bits/(Pixel*Frame) : 0.280
Stream size : 3.95 GiB (77%)
Writing library : core 73 r1243M 2cd0054
Encoding settings : cabac=1 / ref=8 / deblock=1:-3:-2 / analyse=0x3:0x113 / me=umh / subme=9 / psy=1 / psy_rd=1.0:0.1 / mixed_ref=1 / me_range=32 / chroma_me=1 / trellis=2 / 8x8dct=1 / cqm=0 / deadzone=21,11 / chroma_qp_offset=-3 / threads=6 / nr=0 / decimate=1 / mbaff=0 / bframes=7 / b_pyramid=1 / b_adapt=2 / b_bias=0 / direct=3 / wpredb=1 / keyint=240 / keyint_min=24 / scenecut=40 / rc=2pass / mbtree=0 / bitrate=6180 / ratetol=1.0 / qcomp=0.60 / qpmin=10 / qpmax=51 / qpstep=4 / cplxblur=20.0 / qblur=0.5 / ip_ratio=1.40 / pb_ratio=1.30 / aq=1:1.00
Default : Yes
Forced : No

Audio #1
ID : 2
Format :
Format/Info : Digital Theater Systems
Mode : 16
Format settings, Endianness : Big
Codec ID : A_DTS
Duration : 1 h 31 min
Bit rate mode : Constant
Bit rate : 1 510 kb/s
Channel(s) : 6 channels
Channel positions : Front: L C R, Side: L R, LFE
Sampling rate : 48.0 kHz
Frame rate : 93.750 FPS (512 spf)
Bit depth : 24 bits
Compression mode : Lossy
Delay relative to video : 83 ms
Stream size : 989 MiB (19%)
Title : [UA-MVO- Студія "Старий Майстер"]
Language : Ukrainian
Default : Yes
Forced : Yes

Audio #2
ID : 3
Format : AC-3
Format/Info : Audio Coding 3
Mode extension : CM (complete main)
Format settings, Endianness : Big
Codec ID : A_AC3
Duration : 1 h 31 min
Bit rate mode : Constant
Bit rate : 384 kb/s
Channel(s) : 6 channels
Channel positions : Front: L C R, Side: L R, LFE
Sampling rate : 48.0 kHz
Frame rate : 31.250 FPS (1536 spf)
Bit depth : 16 bits
Compression mode : Lossy
Stream size : 251 MiB (5%)
Language : English
Default : No
Forced : No
Серія 2
General
Unique ID : 249488872045549700689368995698880263575 (0xBBB1CF171C59BE7DBFF37E0D620BB597)
Complete name : H:\RELIZI\Tin Man (2007) 720p [Ukr Eng][Hurtom]\Tin Man (2007) [2] Search for the Emerald 720p [Ukr Eng][Hurtom].
Format :
Format version : Version 4 / Version 2
File size : 5.17 GiB
Duration : 1 h 27 min
Overall bit rate : 8 433 kb/s
Movie name : Tin Man (2007) [2] Search for the Emerald 720p [Ukr Eng][Hurtom]
Encoded date : UTC 2018-04-03 07:43:13
Writing application : v9.8.0 ('Kuglblids') 64bit
Writing library : libebml v1.3.4 + v1.4.5

Video
ID : 1
Format : AVC
Format/Info : Advanced Video Codec
Format profile : [email protected]
Format settings, CABAC : Yes
Format settings, ReFrames : 8 frames
Codec ID : V_MPEG4/ISO/AVC
Duration : 1 h 27 min
Bit rate : 6 537 kb/s
Width : 1 280 pixels
Height : 720 pixels
Display aspect ratio : 16:9
Frame rate mode : Constant
Frame rate : 23.976 (24000/1001) FPS
Color space : YUV
Chroma subsampling : 4:2:0
Bit depth : 8 bits
Scan type : Progressive
Bits/(Pixel*Frame) : 0.296
Stream size : 4.00 GiB (78%)
Writing library : core 73 r1243M 2cd0054
Encoding settings : cabac=1 / ref=8 / deblock=1:-3:-2 / analyse=0x3:0x113 / me=umh / subme=9 / psy=1 / psy_rd=1.0:0.1 / mixed_ref=1 / me_range=32 / chroma_me=1 / trellis=2 / 8x8dct=1 / cqm=0 / deadzone=21,11 / chroma_qp_offset=-3 / threads=6 / nr=0 / decimate=1 / mbaff=0 / bframes=7 / b_pyramid=1 / b_adapt=2 / b_bias=0 / direct=3 / wpredb=1 / keyint=240 / keyint_min=24 / scenecut=40 / rc=2pass / mbtree=0 / bitrate=6537 / ratetol=1.0 / qcomp=0.60 / qpmin=10 / qpmax=51 / qpstep=4 / cplxblur=20.0 / qblur=0.5 / ip_ratio=1.40 / pb_ratio=1.30 / aq=1:1.00
Default : No
Forced : No

Audio #1
ID : 2
Format :
Format/Info : Digital Theater Systems
Mode : 16
Format settings, Endianness : Big
Codec ID : A_DTS
Duration : 1 h 27 min
Bit rate mode : Constant
Bit rate : 1 510 kb/s
Channel(s) : 6 channels
Channel positions : Front: L C R, Side: L R, LFE
Sampling rate : 48.0 kHz
Frame rate : 93.750 FPS (512 spf)
Bit depth : 24 bits
Compression mode : Lossy
Stream size : 947 MiB (18%)
Title : [UA-MVO- Студія "Старий Майстер"]
Language : Ukrainian
Default : Yes
Forced : Yes

Audio #2
ID : 3
Format : AC-3
Format/Info : Audio Coding 3
Mode extension : CM (complete main)
Format settings, Endianness : Big
Codec ID : A_AC3
Duration : 1 h 27 min
Bit rate mode : Constant
Bit rate : 384 kb/s
Channel(s) : 6 channels
Channel positions : Front: L C R, Side: L R, LFE
Sampling rate : 48.0 kHz
Frame rate : 31.250 FPS (1536 spf)
Bit depth : 16 bits
Compression mode : Lossy
Stream size : 241 MiB (5%)
Language : English
Default : No
Forced : No
Серія 3
General
Unique ID : 243279111237552246543680019263885023161 (0xB705DA3E9872A03BAB06628C932617B9)
Complete name : H:\RELIZI\Tin Man (2007) 720p [Ukr Eng][Hurtom]\Tin Man (2007) [3] Tin Man 720p [Ukr Eng][Hurtom].
Format :
Format version : Version 4 / Version 2
File size : 5.17 GiB
Duration : 1 h 28 min
Overall bit rate : 8 366 kb/s
Movie name : Tin Man (2007) [3] Tin Man 720p [Ukr Eng][Hurtom]
Encoded date : UTC 2018-04-03 08:12:21
Writing application : v9.8.0 ('Kuglblids') 64bit
Writing library : libebml v1.3.4 + v1.4.5

Video
ID : 1
Format : AVC
Format/Info : Advanced Video Codec
Format profile : [email protected]
Format settings, CABAC : Yes
Format settings, ReFrames : 8 frames
Codec ID : V_MPEG4/ISO/AVC
Duration : 1 h 28 min
Bit rate : 6 470 kb/s
Width : 1 280 pixels
Height : 720 pixels
Display aspect ratio : 16:9
Frame rate mode : Constant
Frame rate : 23.976 (24000/1001) FPS
Color space : YUV
Chroma subsampling : 4:2:0
Bit depth : 8 bits
Scan type : Progressive
Bits/(Pixel*Frame) : 0.293
Stream size : 4.00 GiB (77%)
Writing library : core 73 r1243M 2cd0054
Encoding settings : cabac=1 / ref=8 / deblock=1:-3:-2 / analyse=0x3:0x113 / me=umh / subme=9 / psy=1 / psy_rd=1.0:0.1 / mixed_ref=1 / me_range=32 / chroma_me=1 / trellis=2 / 8x8dct=1 / cqm=0 / deadzone=21,11 / chroma_qp_offset=-3 / threads=6 / nr=0 / decimate=1 / mbaff=0 / bframes=7 / b_pyramid=1 / b_adapt=2 / b_bias=0 / direct=3 / wpredb=1 / keyint=240 / keyint_min=24 / scenecut=40 / rc=2pass / mbtree=0 / bitrate=6470 / ratetol=1.0 / qcomp=0.60 / qpmin=10 / qpmax=51 / qpstep=4 / cplxblur=20.0 / qblur=0.5 / ip_ratio=1.40 / pb_ratio=1.30 / aq=1:1.00
Default : Yes
Forced : No

Audio #1
ID : 2
Format :
Format/Info : Digital Theater Systems
Mode : 16
Format settings, Endianness : Big
Codec ID : A_DTS
Duration : 1 h 28 min
Bit rate mode : Constant
Bit rate : 1 510 kb/s
Channel(s) : 6 channels
Channel positions : Front: L C R, Side: L R, LFE
Sampling rate : 48.0 kHz
Frame rate : 93.750 FPS (512 spf)
Bit depth : 24 bits
Compression mode : Lossy
Stream size : 956 MiB (18%)
Language : Ukrainian
Default : Yes
Forced : Yes

Audio #2
ID : 3
Format : AC-3
Format/Info : Audio Coding 3
Mode extension : CM (complete main)
Format settings, Endianness : Big
Codec ID : A_AC3
Duration : 1 h 28 min
Bit rate mode : Constant
Bit rate : 384 kb/s
Channel(s) : 6 channels
Channel positions : Front: L C R, Side: L R, LFE
Sampling rate : 48.0 kHz
Frame rate : 31.250 FPS (1536 spf)
Bit depth : 16 bits
Compression mode : Lossy
Stream size : 243 MiB (5%)
Language : English
Default : No
Forced : No
Тривалість: 01:31:32, 01:27:42, 01:28:31
Якість: 720p
Відео:
кодек:
розмір кадру: 1280x720
бітрейт: ~ 6.4 мб/с

Аудіо #1:
мова: українська
переклад: багатоголосий закадровий
кодек: 5.1
бітрейт: 1510 кб/с
запис з каналу: Студія "Старий Майстер" на замовлення Аврора Дистрибушн

Аудіо #2:
мова: англійська
переклад: оригінал
кодек: 5.1
бітрейт: 384 кб/с

Скріншоти:





Джерело : &
Особиста оцінка: Ще не дивився.
Зачароване королівство / Tin Man (2007) 720p Ukr/Eng




Бронзовий реліз (на рейтинг впливає 75% завантаженого)
 Трекер:    Зареєстрований   

Завантажити / скачати серіал українською



відео для новачків



 Зареєстрований:   2018-04-03 17:16
 Розмір:   15.5 GB 
 Оцінка серіалу:   8.9/10 (Голосів: 9)
   
teelmaster1 
Поважний учасник


З нами з: 27.12.16
Востаннє: 01.12.20
Повідомлень: 248

2018-04-03 16:59  
Один із любимих сиреалів дитинства

Підтримай WWE SmackDown Українською

bot 
робот


З нами з: 30.09.07
Востаннє: 26.05.05
Повідомлень: 26481

2018-04-03 17:16  
Тему перенесено з Анонси релізів до форуму Серіали в HD


staf777

Ваш часовий пояс: GMT + 2 Години

Нова тема   Відповісти