Таємний Агент / Unlocked (2017) 1080p Ukr/Eng | Sub Eng

Нові коментарі

Нова тема   Відповісти
Автор Повідомлення
staf777 
Відео Гуртом - підтримка та поширення
Відео Гуртом - підтримка та поширення


З нами з: 16.11.16
Востаннє: 20.04.19
Повідомлень: 2267

2018-04-03 15:51  
Таємний Агент / Unlocked (2017) 1080p Ukr/Eng | Sub Eng

Таємний Агент / Unlocked (2017) 1080p Ukr/Eng | Sub Eng


Жанр: бойовик, трилер
Країна: Велика Британія



Кінокомпанія: Bloom, Czech Anglo Productions, Di Bonaventura Pictures, Lip Sync Productions, Silver Reel, SRA Productions, Unlocked Distribution
Режисер: Майкл Ептід / Michael Apted
Актори: Нумі Рапас / Noomi Rapace, Орландо Блум / Orlando Bloom, Майкл Дуглас / Michael Douglas, Тоні Коллетт / Toni Collette, Джон Малковіч / John Malkovich, Акшай Кумар / Akshay Kumar, Еделайо Едедайо / Adelayo Adedayo, Філіп Броді / Philip Brodie, Тосін Коул / Tosin Cole, Браян Каспе / Brian Caspe та інші

Сюжет:
Терористична група планує масштабну біологічну атаку на Лондон. Їм вдається захопити агента ЦРУ і отримати доступ до секретної інформації, яка ставить під загрозу життя всіх жителів мегаполісу. Щоб запобігти трагедії, команда досвідчених агентів продумує план звільнення колеги та порятунку Лондона.
Офіційний український трейлер:

Рейтинг MPAA: R - особам до 17 років обов'язкова присутність батьків або дорослого опікуна
Вікова категорія: 16+
Тривалість: 01:38:22
Якість: 720p
Відео:
кодек:
розмір кадру: 1920x804
бітрейт: 13500 кб/с

Аудіо # 1:
мова: українська
переклад: професійний дубльований | ААА-sound
кодек: 2.0
бітрейт: 192 кб/с
Інформація про дубляж
Переклад: Юлія Когут
Режисер дубляжу: Олександр Єфімов
Ролі дублювали: Катерина Брайковська, Іван Розін, Дмитро Завадський, Дмитро Гаврилов, Катерина Буцька, Андрій Мостренко, Юлія Перенчук, Андрій Альохін, Андрій Федінчик, Ярослав Чорненький, Дмитро На????ський та інші.
Фільм дубльовано студією ААА-sound у 2017 році на замовлення компанії "Кіноманія".
Аудіо # 2:
мова: англійська
переклад: оригінал
кодек: 5.1
бітрейт: 768 кб/с

Субтитри # 1-3:
мова: англійська (повні, SDH, SDH Colored)
тип: програмні (м'які)
формат: *.srt

Збережено оригінальні розділи, як на Blu-ray
Info
Код:
General
Unique ID                                : 185500964935458225334111807226934632508 (0x8B8E2FB1E4CA0AEB9117F9280DDAA03C)
Complete name                            : H:\RELIZI\Unlocked (2017) 1080p [Ukr Eng][Sub Eng][Hurtom].
Format                                   :
Format version                           : Version 4 / Version 2
File size                                : 9.92 GiB
Duration                                 : 1 h 38 min
Overall bit rate                         : 14.4 Mb/s
Movie name                               : Unlocked (2017) 1080p [Ukr Eng][Sub Eng][Hurtom]
Encoded date                             : UTC 2018-04-03 09:00:26
Writing application                      : v9.8.0 ('Kuglblids') 64bit
Writing library                          : libebml v1.3.4 + v1.4.5
Attachments                              : Unlocked.jpg

Video
ID                                       : 1
Format                                   : AVC
Format/Info                              : Advanced Video Codec
Format profile                           : [email protected]
Format settings, CABAC                   : Yes
Format settings, ReFrames                : 5 frames
Codec ID                                 : V_MPEG4/ISO/AVC
Duration                                 : 1 h 38 min
Bit rate                                 : 13.5 Mb/s
Width                                    : 1 920 pixels
Height                                   : 804 pixels
Display aspect ratio                     : 2.40:1
Frame rate mode                          : Constant
Frame rate                               : 24.000 FPS
Color space                              : YUV
Chroma subsampling                       : 4:2:0
Bit depth                                : 8 bits
Scan type                                : Progressive
Bits/(Pixel*Frame)                       : 0.364
Stream size                              : 9.26 GiB (93%)
Writing library                          : core 142 r2431+42 c69a006 tMod [[email protected]:2:0 X86_64]
Encoding settings                        : cabac=1 / ref=5 / deblock=1:-3:-3 / analyse=0x3:0x113 / me=umh / subme=11 / psy=1 / fade_compensate=0.00 / psy_rd=1.05:0.00 / mixed_ref=1 / me_range=32 / chroma_me=1 / trellis=2 / 8x8dct=1 / cqm=0 / deadzone=21,11 / fast_pskip=0 / chroma_qp_offset=-2 / threads=12 / lookahead_threads=2 / sliced_threads=0 / nr=0 / decimate=0 / interlaced=0 / bluray_compat=0 / constrained_intra=0 / fgo=0 / bframes=9 / b_pyramid=2 / b_adapt=2 / b_bias=0 / direct=3 / weightb=1 / open_gop=0 / weightp=2 / keyint=250 / keyint_min=24 / scenecut=40 / intra_refresh=0 / rc_lookahead=60 / rc=crf / mbtree=0 / crf=17.8000 / qcomp=0.65 / qpmin=0:0:0 / qpmax=69:69:69 / qpstep=4 / vbv_maxrate=62500 / vbv_bufsize=78125 / crf_max=0.0 / nal_hrd=none / filler=0 / ip_ratio=1.30 / pb_ratio=1.20 / aq=3:0.80 / aq-sensitivity=10.00 / aq-factor=1.00:1.00:1.00 / aq2=0 / aq3=0 / zones=0,574,crf=13.8/19400,19551,crf=13.8/20300,20419,crf=13.8/20400,20594,crf=13.8/37600,37848,crf=13.8/48200,48281,crf=13.8/52950,53149,crf=13.8/56650,56738,crf=13.8/99000,99329,crf=13.8/100100,100242,crf=13.8/104429,104480,crf=13.8/106400,106454,crf=13.8/106900,106995,crf=13.8/107100,107175,crf=13.8/107300,107420,crf=13.8/110060,110321,crf=13.8
Language                                 : English
Default                                  : Yes
Forced                                   : No
Color range                              : Limited
Color primaries                          : BT.709
Transfer characteristics                 : BT.709
Matrix coefficients                      : BT.709

Audio #1
ID                                       : 2
Format                                   : AC-3
Format/Info                              : Audio Coding 3
Mode extension                           : CM (complete main)
Format settings, Endianness              : Big
Codec ID                                 : A_AC3
Duration                                 : 1 h 38 min
Bit rate mode                            : Constant
Bit rate                                 : 192 kb/s
Channel(s)                               : 2 channels
Channel positions                        : Front: L R
Sampling rate                            : 48.0 kHz
Frame rate                               : 31.250 FPS (1536 spf)
Bit depth                                : 16 bits
Compression mode                         : Lossy
Stream size                              : 135 MiB (1%)
Title                                    : [UA-DUB]
Language                                 : Ukrainian
Default                                  : Yes
Forced                                   : Yes

Audio #2
ID                                       : 3
Format                                   :
Format/Info                              : Digital Theater Systems
Mode                                     : 16
Format settings, Endianness              : Big
Codec ID                                 : A_DTS
Duration                                 : 1 h 38 min
Bit rate mode                            : Constant
Bit rate                                 : 768 kb/s
Channel(s)                               : 6 channels
Channel positions                        : Front: L C R, Side: L R, LFE
Sampling rate                            : 48.0 kHz
Frame rate                               : 93.750 FPS (512 spf)
Bit depth                                : 24 bits
Compression mode                         : Lossy
Stream size                              : 540 MiB (5%)
Title                                    : Original
Language                                 : English
Default                                  : No
Forced                                   : No

Text #1
ID                                       : 4
Format                                   : UTF-8
Codec ID                                 : S_TEXT/UTF8
Codec ID/Info                            : UTF-8 Plain Text
Duration                                 : 1 h 30 min
Bit rate                                 : 55 b/s
Count of elements                        : 1065
Stream size                              : 36.8 KiB (0%)
Title                                    : Full
Language                                 : English
Default                                  : No
Forced                                   : No

Text #2
ID                                       : 5
Format                                   : UTF-8
Codec ID                                 : S_TEXT/UTF8
Codec ID/Info                            : UTF-8 Plain Text
Duration                                 : 1 h 30 min
Bit rate                                 : 61 b/s
Count of elements                        : 1194
Stream size                              : 40.7 KiB (0%)
Title                                    : SDH
Language                                 : English
Default                                  : No
Forced                                   : No

Text #3
ID                                       : 6
Format                                   : UTF-8
Codec ID                                 : S_TEXT/UTF8
Codec ID/Info                            : UTF-8 Plain Text
Duration                                 : 1 h 30 min
Bit rate                                 : 76 b/s
Count of elements                        : 1194
Stream size                              : 50.7 KiB (0%)
Title                                    : SDH Colored
Language                                 : English
Default                                  : No
Forced                                   : No

Menu
00:00:00.000                             : en:00:00:00.000
00:07:36.583                             : en:00:07:36.583
00:16:21.583                             : en:00:16:21.583
00:23:34.417                             : en:00:23:34.417
00:31:06.250                             : en:00:31:06.250
00:38:49.125                             : en:00:38:49.125
00:47:00.500                             : en:00:47:00.500
00:53:55.333                             : en:00:53:55.333
01:03:15.208                             : en:01:03:15.208
01:09:50.250                             : en:01:09:50.250
01:17:26.667                             : en:01:17:26.667
01:24:01.542                             : en:01:24:01.542

Джерело: &
Подяка за український звук п. dark_inwhite


 Трекер:    Зареєстрований   

Завантажити / скачати фільм українською



відео для новачків



 Зареєстрований:   2018-04-03 19:22
 Розмір:   9.92 GB 
 Оцінка фільму:   8.6/10 (Голосів: 17)
   
Інші релізи
   Таємний Агент / Unlocked (2017) Remux 1080p Ukr/Eng | Sub Eng Devil_my_cry  0 / 0   24.57 GB   2018-04-15 10:45 
   Таємний Агент / Unlocked (2017) 720p Ukr/Eng | Sub Eng igor911  15 / 0   4.01 GB   2017-08-30 20:31 
   Таємний Агент / Unlocked (2017) AVC Ukr/Eng | Sub Eng dark_inwhite  9 / 0   1.99 GB   2017-08-30 15:32 
   Таємний Агент / Unlocked (2017) Ukr/Eng dark_inwhite  11 / 0   1.52 GB   2017-08-30 15:31 
vladikom2009 
Новенький


З нами з: 10.03.17
Востаннє: 08.04.19
Повідомлень: 2

2018-04-05 18:33  
хороший бойовичок Wink (1)
suvuytaras32 
Новенький


З нами з: 12.12.15
Востаннє: 13.04.19
Повідомлень: 3

2018-04-10 23:17  
Непоганий фільм.
Під чай з канапками ,те що треба.

Siegfried 
VIP


З нами з: 01.11.11
Востаннє: 19.04.19
Повідомлень: 250

2019-02-17 17:54  
Заштампована нудота без іскри.

Як на це відомі актори підписалися ?

Лише за знайомі обличчя: 3/10

Ваш часовий пояс: GMT + 2 Години

Нова тема   Відповісти