Невідома планета Земля (Сезон 1) / One Strange Rock (2018) AVC Ukr/Eng

Нові коментарі

Нова тема   Відповісти
Автор Повідомлення
Anonymous 







2018-04-03 11:01  
Невідома планета Земля (Сезон 1) / One Strange Rock (2018) AVC Ukr/Eng

Невідома планета Земля (Сезон 1) / One Strange Rock (2018) AVC Ukr/Eng


Жанр: документальний
Країна: США



Кінокомпанія: Nutopia, Protozoa Pictures, National Geographic
Режисер: Даррен Аронофскі / Darren Aronofsky
Актори: Вілл Сміт / Will Smith

Сюжет:
Разом з відомим голлівудський актором Віллом Смітом, глядачі відправляться у мандрівку різними куточками Землі та космосу. Дізнаються вражаючі факти про нашу планету та про польоти легендарних астронавтів.


Перелік епізодів:
01. Дихання / Gasp
02. Шторм / Storm
03. Щит / Shield
04. Буття / Genesis
05. Виживання / Survival
06. Втеча / Escape
07. Планетоформування / Terraform
08. Інопланетяни / Alien
09. Пробудження / Awakening
10. Дім / Home

Тривалість: 1 серія: 47 хв. (цілком серій: 10 з 10)
Якість: AVC [Hurtom]
Відео:
кодек:
розмір кадру: 1024 х 576
бітрейт: 2219-3212 кб/с

Аудіо # 1:
мова: українська
переклад: багатоголосий закадровий
кодек: 2.0
бітрейт: 192 кб/с

Аудіо # 2:
мова: англійська
переклад: оригінал
кодек: 5.1
бітрейт: 448 кб/с
Info та log
серія 1
Код:
Complete name               : E01 Gasp. One Strange Rock (2018) [Ukr,Eng ] AVC [Hurtom].
Format                      :
Format version              : Version 4 / Version 2
File size                   : 1.06 GiB
Duration                    : 47 min 16 s
Overall bit rate            : 3 200 kb/s
Movie name                  : Невідома планета Земля, с.01 Дихання  / One Strange Rock e01 Gasp (2018) AVC [Hurtom]
Released date               : 2018
Encoded date                : UTC 2018-04-03 08:02:52
Writing application         : v22.0.0 ('At The End Of The World') 64-bit
Writing library             : libebml v1.3.5 + v1.4.8
Cover                       : Yes
Comment                     : http://www.imdb.com/title/tt7651892/
Attachments                 : cover.jpg
ARTIST                      : Вілл Сміт / Will Smith
DIRECTOR                    : Даррен Аронофскі / Darren Aronofsky
GENRE                       : документальний
SYNOPSIS                    : Разом з відомим голлівудський актором Віллом Смітом, глядачі відправляться у мандрівку різними куточками Землі та космосу. Дізнаються вражаючі факти про нашу планету та про польоти легендарних астронавтів...
Url                         : https://toloka.to/t89056

Video
ID                          : 1
Format                      : AVC
Format/Info                 : Advanced Video Codec
Format profile              : [email protected]
Format settings             : CABAC / 12 Ref Frames
Format settings, CABAC      : Yes
Format settings, ReFrames   : 12 frames
Codec ID                    : V_MPEG4/ISO/AVC
Duration                    : 47 min 16 s
Bit rate                    : 2 557 kb/s
Width                       : 1 024 pixels
Height                      : 576 pixels
Display aspect ratio        : 16:9
Frame rate mode             : Constant
Frame rate                  : 23.976 (24000/1001) FPS
Color space                 : YUV
Chroma subsampling          : 4:2:0
Bit depth                   : 8 bits
Scan type                   : Progressive
Bits/(Pixel*Frame)          : 0.181
Stream size                 : 865 MiB (80%)
Title                       : Невідома планета Земля, с.01 Дихання  / One Strange Rock e01 Gasp (2018) AVC [Hurtom]
Writing library             : core 155 r2901 7d0ff22
Encoding settings           : cabac=1 / ref=12 / deblock=1:-1:-1 / analyse=0x3:0x133 / me=umh / subme=10 / psy=1 / psy_rd=1.00:0.15 / mixed_ref=1 / me_range=32 / chroma_me=1 / trellis=2 / 8x8dct=1 / cqm=0 / deadzone=21,11 / fast_pskip=0 / chroma_qp_offset=-3 / threads=12 / lookahead_threads=3 / sliced_threads=0 / nr=0 / decimate=1 / interlaced=0 / bluray_compat=0 / constrained_intra=0 / bframes=10 / b_pyramid=2 / b_adapt=2 / b_bias=0 / direct=3 / weightb=1 / open_gop=0 / weightp=2 / keyint=240 / keyint_min=23 / scenecut=40 / intra_refresh=0 / rc_lookahead=60 / rc=crf / mbtree=0 / crf=19.0 / qcomp=0.60 / qpmin=0 / qpmax=69 / qpstep=4 / vbv_maxrate=30720 / vbv_bufsize=38400 / crf_max=0.0 / nal_hrd=none / filler=0 / ip_ratio=1.40 / pb_ratio=1.30 / aq=3:0.80
Language                    : English
Default                     : Yes
Forced                      : No

Audio #1
ID                          : 2
Format                      : AC-3
Format/Info                 : Audio Coding 3
Codec ID                    : A_AC3
Duration                    : 47 min 16 s
Bit rate mode               : Constant
Bit rate                    : 192 kb/s
Channel(s)                  : 2 channels
Channel positions           : Front: L R
Sampling rate               : 48.0 kHz
Frame rate                  : 31.250 FPS (1536 SPF)
Bit depth                   : 16 bits
Compression mode            : Lossy
Stream size                 : 64.9 MiB (6%)
Title                       : MVO [NGO] 2.0 192 Kbps
Language                    : Ukrainian
Service kind                : Complete Main
Default                     : Yes
Forced                      : Yes

Audio #2
ID                          : 3
Format                      : AC-3
Format/Info                 : Audio Coding 3
Codec ID                    : A_AC3
Duration                    : 47 min 16 s
Bit rate mode               : Constant
Bit rate                    : 448 kb/s
Channel(s)                  : 6 channels
Channel positions           : Front: L C R, Side: L R, LFE
Sampling rate               : 48.0 kHz
Frame rate                  : 31.250 FPS (1536 SPF)
Bit depth                   : 16 bits
Compression mode            : Lossy
Stream size                 : 151 MiB (14%)
Title                       : Original, 5.1 448 Kbps
Language                    : English
Service kind                : Complete Main
Default                     : No
Forced                      : No

Код:
frame I:615   Avg QP:15.95  size: 83431
frame P:16119 Avg QP:18.40  size: 28212
frame B:51264 Avg QP:20.57  size:  7812
consecutive B-frames:  2.0%  2.9%  5.6% 51.8% 11.7% 17.6%  3.3%  3.0%  0.9%  0.4%  0.9%
серія 2
Код:
Complete name               : E02 Storm. One Strange Rock (2018) [Ukr,Eng ] AVC [Hurtom].
Format                      :
Format version              : Version 4 / Version 2
File size                   : 1.04 GiB
Duration                    : 47 min 14 s
Overall bit rate            : 3 156 kb/s
Movie name                  : Невідома планета Земля, с.02 Шторм  / One Strange Rock e02 Storm (2018) [Ukr,Eng] AVC [Hurtom]
Released date               : 2018
Encoded date                : UTC 2018-04-12 13:19:41
Writing application         : v22.0.0 ('At The End Of The World') 64-bit
Writing library             : libebml v1.3.5 + v1.4.8
Cover                       : Yes
Comment                     : http://www.imdb.com/title/tt7651892/
Attachments                 : cover.jpg
Url                         : https://toloka.to/t89056

Video
ID                          : 1
Format                      : AVC
Format/Info                 : Advanced Video Codec
Format profile              : [email protected]
Format settings             : CABAC / 12 Ref Frames
Format settings, CABAC      : Yes
Format settings, ReFrames   : 12 frames
Codec ID                    : V_MPEG4/ISO/AVC
Duration                    : 47 min 14 s
Bit rate                    : 2 514 kb/s
Width                       : 1 024 pixels
Height                      : 576 pixels
Display aspect ratio        : 16:9
Frame rate mode             : Constant
Frame rate                  : 23.976 (24000/1001) FPS
Color space                 : YUV
Chroma subsampling          : 4:2:0
Bit depth                   : 8 bits
Scan type                   : Progressive
Bits/(Pixel*Frame)          : 0.178
Stream size                 : 849 MiB (80%)
Title                       : Невідома планета Земля, с.02 Шторм  / One Strange Rock e02 Storm (2018) AVC [Hurtom]
Writing library             : core 155 r2901 7d0ff22
Encoding settings           : cabac=1 / ref=12 / deblock=1:-1:-1 / analyse=0x3:0x133 / me=umh / subme=10 / psy=1 / psy_rd=1.00:0.15 / mixed_ref=1 / me_range=32 / chroma_me=1 / trellis=2 / 8x8dct=1 / cqm=0 / deadzone=21,11 / fast_pskip=0 / chroma_qp_offset=-3 / threads=12 / lookahead_threads=3 / sliced_threads=0 / nr=0 / decimate=1 / interlaced=0 / bluray_compat=0 / constrained_intra=0 / bframes=10 / b_pyramid=2 / b_adapt=2 / b_bias=0 / direct=3 / weightb=1 / open_gop=0 / weightp=2 / keyint=240 / keyint_min=23 / scenecut=40 / intra_refresh=0 / rc_lookahead=60 / rc=crf / mbtree=0 / crf=19.0 / qcomp=0.60 / qpmin=0 / qpmax=69 / qpstep=4 / vbv_maxrate=30720 / vbv_bufsize=38400 / crf_max=0.0 / nal_hrd=none / filler=0 / ip_ratio=1.40 / pb_ratio=1.30 / aq=3:0.80
Language                    : English
Default                     : Yes
Forced                      : No

Audio #1
ID                          : 2
Format                      : AC-3
Format/Info                 : Audio Coding 3
Codec ID                    : A_AC3
Duration                    : 47 min 14 s
Bit rate mode               : Constant
Bit rate                    : 192 kb/s
Channel(s)                  : 2 channels
Channel positions           : Front: L R
Sampling rate               : 48.0 kHz
Frame rate                  : 31.250 FPS (1536 SPF)
Bit depth                   : 16 bits
Compression mode            : Lossy
Stream size                 : 64.9 MiB (6%)
Title                       : MVO [NGO] 2.0 192 Kbps
Language                    : Ukrainian
Service kind                : Complete Main
Default                     : Yes
Forced                      : Yes

Audio #2
ID                          : 3
Format                      : AC-3
Format/Info                 : Audio Coding 3
Codec ID                    : A_AC3
Duration                    : 47 min 14 s
Bit rate mode               : Constant
Bit rate                    : 448 kb/s
Channel(s)                  : 6 channels
Channel positions           : Front: L C R, Side: L R, LFE
Sampling rate               : 48.0 kHz
Frame rate                  : 31.250 FPS (1536 SPF)
Bit depth                   : 16 bits
Compression mode            : Lossy
Stream size                 : 151 MiB (14%)
Title                       : Original, 5.1 448 Kbps
Language                    : English
Service kind                : Complete Main
Default                     : No
Forced                      : No

Код:
frame I:556   Avg QP:15.14  size: 71765
frame P:16599 Avg QP:17.51  size: 25635
frame B:50816 Avg QP:19.95  size:  8370
consecutive B-frames:  2.5%  3.9%  6.6% 47.7% 12.2% 19.2%  3.3%  2.5%  1.0%  0.5%  0.8%
серія 3
Код:
Complete name               : E03 Shield. One Strange Rock (2018) [Ukr,Eng] AVC [Hurtom].
Format                      :
Format version              : Version 4 / Version 2
File size                   : 965 MiB
Duration                    : 47 min 7 s
Overall bit rate            : 2 862 kb/s
Movie name                  : Невідома планета Земля, с.03 Щит  / One Strange Rock e03 Shield (2018) [Ukr,Eng] AVC [Hurtom]
Released date               : 2018
Encoded date                : UTC 2018-05-02 09:28:30
Writing application         : v22.0.0 ('At The End Of The World') 64-bit
Writing library             : libebml v1.3.5 + v1.4.8
Cover                       : Yes
Comment                     : http://www.imdb.com/title/tt7651892/
Attachments                 : cover.jpg
Url                         : https://toloka.to/t89056

Video
ID                          : 1
Format                      : AVC
Format/Info                 : Advanced Video Codec
Format profile              : [email protected]
Format settings             : CABAC / 12 Ref Frames
Format settings, CABAC      : Yes
Format settings, ReFrames   : 12 frames
Codec ID                    : V_MPEG4/ISO/AVC
Duration                    : 47 min 7 s
Bit rate                    : 2 219 kb/s
Width                       : 1 024 pixels
Height                      : 576 pixels
Display aspect ratio        : 16:9
Frame rate mode             : Constant
Frame rate                  : 23.976 (24000/1001) FPS
Color space                 : YUV
Chroma subsampling          : 4:2:0
Bit depth                   : 8 bits
Scan type                   : Progressive
Bits/(Pixel*Frame)          : 0.157
Stream size                 : 748 MiB (78%)
Title                       : Невідома планета Земля, с.03 Щит  / One Strange Rock e03 Shield (2018) AVC [Hurtom]
Writing library             : core 155 r2901 7d0ff22
Encoding settings           : cabac=1 / ref=12 / deblock=1:-1:-1 / analyse=0x3:0x133 / me=umh / subme=10 / psy=1 / psy_rd=1.00:0.15 / mixed_ref=1 / me_range=32 / chroma_me=1 / trellis=2 / 8x8dct=1 / cqm=0 / deadzone=21,11 / fast_pskip=0 / chroma_qp_offset=-3 / threads=6 / lookahead_threads=1 / sliced_threads=0 / nr=0 / decimate=1 / interlaced=0 / bluray_compat=0 / constrained_intra=0 / bframes=10 / b_pyramid=2 / b_adapt=2 / b_bias=0 / direct=3 / weightb=1 / open_gop=0 / weightp=2 / keyint=240 / keyint_min=23 / scenecut=40 / intra_refresh=0 / rc_lookahead=60 / rc=crf / mbtree=0 / crf=19.0 / qcomp=0.60 / qpmin=0 / qpmax=69 / qpstep=4 / vbv_maxrate=30720 / vbv_bufsize=38400 / crf_max=0.0 / nal_hrd=none / filler=0 / ip_ratio=1.40 / pb_ratio=1.30 / aq=3:0.80
Language                    : English
Default                     : Yes
Forced                      : No

Audio #1
ID                          : 2
Format                      : AC-3
Format/Info                 : Audio Coding 3
Codec ID                    : A_AC3
Duration                    : 47 min 7 s
Bit rate mode               : Constant
Bit rate                    : 192 kb/s
Channel(s)                  : 2 channels
Channel positions           : Front: L R
Sampling rate               : 48.0 kHz
Frame rate                  : 31.250 FPS (1536 SPF)
Bit depth                   : 16 bits
Compression mode            : Lossy
Stream size                 : 64.7 MiB (7%)
Title                       : MVO [NGO] 2.0 192 Kbps
Language                    : Ukrainian
Service kind                : Complete Main
Default                     : Yes
Forced                      : Yes

Audio #2
ID                          : 3
Format                      : AC-3
Format/Info                 : Audio Coding 3
Codec ID                    : A_AC3
Duration                    : 47 min 7 s
Bit rate mode               : Constant
Bit rate                    : 448 kb/s
Channel(s)                  : 6 channels
Channel positions           : Front: L C R, Side: L R, LFE
Sampling rate               : 48.0 kHz
Frame rate                  : 31.250 FPS (1536 SPF)
Bit depth                   : 16 bits
Compression mode            : Lossy
Stream size                 : 151 MiB (16%)
Title                       : Original, 5.1 448 Kbps
Language                    : English
Service kind                : Complete Main
Default                     : No
Forced                      : No

Код:
frame I:508   Avg QP:15.40  size: 74404
frame P:15611 Avg QP:17.31  size: 24747
frame B:51682 Avg QP:19.55  size:  6974
consecutive B-frames:  1.7%  2.0%  4.2% 52.6% 10.5% 18.5%  3.6%  4.3%  1.0%  0.8%  0.7%
серія 4
Код:
Complete name               : E04 Genesis. One Strange Rock (2018) [Ukr,Eng] AVC [Hurtom].
Format                      :
Format version              : Version 4 / Version 2
File size                   : 1.17 GiB
Duration                    : 47 min 15 s
Overall bit rate            : 3 547 kb/s
Movie name                  : Невідома планета Земля, с.04 Буття / One Strange Rock e04 Genesis (2018) [Ukr,Eng] AVC [Hurtom]
Released date               : 2018
Encoded date                : UTC 2018-05-02 09:39:09
Writing application         : v22.0.0 ('At The End Of The World') 64-bit
Writing library             : libebml v1.3.5 + v1.4.8
Cover                       : Yes
Comment                     : http://www.imdb.com/title/tt7651892/
Attachments                 : cover.jpg
Url                         : https://toloka.to/t89056

Video
ID                          : 1
Format                      : AVC
Format/Info                 : Advanced Video Codec
Format profile              : [email protected]
Format settings             : CABAC / 12 Ref Frames
Format settings, CABAC      : Yes
Format settings, ReFrames   : 12 frames
Codec ID                    : V_MPEG4/ISO/AVC
Duration                    : 47 min 15 s
Bit rate                    : 2 905 kb/s
Width                       : 1 024 pixels
Height                      : 576 pixels
Display aspect ratio        : 16:9
Frame rate mode             : Constant
Frame rate                  : 23.976 (24000/1001) FPS
Color space                 : YUV
Chroma subsampling          : 4:2:0
Bit depth                   : 8 bits
Scan type                   : Progressive
Bits/(Pixel*Frame)          : 0.205
Stream size                 : 982 MiB (82%)
Title                       : Невідома планета Земля, с.04 Буття / One Strange Rock e04 Genesis (2018) AVC [Hurtom]
Writing library             : core 155 r2901 7d0ff22
Encoding settings           : cabac=1 / ref=12 / deblock=1:-1:-1 / analyse=0x3:0x133 / me=umh / subme=10 / psy=1 / psy_rd=1.00:0.15 / mixed_ref=1 / me_range=32 / chroma_me=1 / trellis=2 / 8x8dct=1 / cqm=0 / deadzone=21,11 / fast_pskip=0 / chroma_qp_offset=-3 / threads=6 / lookahead_threads=1 / sliced_threads=0 / nr=0 / decimate=1 / interlaced=0 / bluray_compat=0 / constrained_intra=0 / bframes=10 / b_pyramid=2 / b_adapt=2 / b_bias=0 / direct=3 / weightb=1 / open_gop=0 / weightp=2 / keyint=240 / keyint_min=23 / scenecut=40 / intra_refresh=0 / rc_lookahead=60 / rc=crf / mbtree=0 / crf=19.0 / qcomp=0.60 / qpmin=0 / qpmax=69 / qpstep=4 / vbv_maxrate=30720 / vbv_bufsize=38400 / crf_max=0.0 / nal_hrd=none / filler=0 / ip_ratio=1.40 / pb_ratio=1.30 / aq=3:0.80
Language                    : English
Default                     : Yes
Forced                      : No

Audio #1
ID                          : 2
Format                      : AC-3
Format/Info                 : Audio Coding 3
Codec ID                    : A_AC3
Duration                    : 47 min 15 s
Bit rate mode               : Constant
Bit rate                    : 192 kb/s
Channel(s)                  : 2 channels
Channel positions           : Front: L R
Sampling rate               : 48.0 kHz
Frame rate                  : 31.250 FPS (1536 SPF)
Bit depth                   : 16 bits
Compression mode            : Lossy
Stream size                 : 64.9 MiB (5%)
Title                       : MVO [NGO] 2.0 192 Kbps
Language                    : Ukrainian
Service kind                : Complete Main
Default                     : Yes
Forced                      : Yes

Audio #2
ID                          : 3
Format                      : AC-3
Format/Info                 : Audio Coding 3
Codec ID                    : A_AC3
Duration                    : 47 min 15 s
Bit rate mode               : Constant
Bit rate                    : 448 kb/s
Channel(s)                  : 6 channels
Channel positions           : Front: L C R, Side: L R, LFE
Sampling rate               : 48.0 kHz
Frame rate                  : 31.250 FPS (1536 SPF)
Bit depth                   : 16 bits
Compression mode            : Lossy
Stream size                 : 151 MiB (13%)
Title                       : Original, 5.1 448 Kbps
Language                    : English
Service kind                : Complete Main
Default                     : No
Forced                      : No

Код:
[info]: frame I:559   Avg QP:16.09  size: 76665
[info]: frame P:16283 Avg QP:18.41  size: 30138
[info]: frame B:51153 Avg QP:20.79  size:  9698
[info]: consecutive B-frames:  2.9%  2.8%  5.2% 45.3% 13.3% 22.4%  3.7%  2.9%  0.6%  0.3%  0.6%
серія 5
Код:
Complete name               : E05 Survival. One Strange Rock (2018) [Ukr,Eng] AVC [Hurtom].
Format                      :
Format version              : Version 4 / Version 2
File size                   : 1.15 GiB
Duration                    : 47 min 14 s
Overall bit rate            : 3 480 kb/s
Movie name                  : Невідома планета Земля, с.05 Виживання / One Strange Rock e05 Survival (2018) [Ukr,Eng] AVC [Hurtom]
Released date               : 2018
Encoded date                : UTC 2018-05-02 09:46:20
Writing application         : v22.0.0 ('At The End Of The World') 64-bit
Writing library             : libebml v1.3.5 + v1.4.8
Cover                       : Yes
Comment                     : http://www.imdb.com/title/tt7651892/
Attachments                 : cover.jpg
ARTIST                      : Вілл Сміт / Will Smith
DIRECTOR                    : Даррен Аронофскі / Darren Aronofsky
GENRE                       : документальний
SYNOPSIS                    : Разом з відомим голлівудський актором Віллом Смітом, глядачі відправляться у мандрівку різними куточками Землі та космосу. Дізнаються вражаючі факти про нашу планету та про польоти легендарних астронавтів...
Url                         : https://toloka.to/t89056

Video
ID                          : 1
Format                      : AVC
Format/Info                 : Advanced Video Codec
Format profile              : [email protected]
Format settings             : CABAC / 12 Ref Frames
Format settings, CABAC      : Yes
Format settings, ReFrames   : 12 frames
Codec ID                    : V_MPEG4/ISO/AVC
Duration                    : 47 min 14 s
Bit rate                    : 2 837 kb/s
Width                       : 1 024 pixels
Height                      : 576 pixels
Display aspect ratio        : 16:9
Frame rate mode             : Constant
Frame rate                  : 23.976 (24000/1001) FPS
Color space                 : YUV
Chroma subsampling          : 4:2:0
Bit depth                   : 8 bits
Scan type                   : Progressive
Bits/(Pixel*Frame)          : 0.201
Stream size                 : 959 MiB (82%)
Title                       : Невідома планета Земля, с.05 Виживання / One Strange Rock e05 Survival (2018) AVC [Hurtom]
Writing library             : core 155 r2901 7d0ff22
Encoding settings           : cabac=1 / ref=12 / deblock=1:-1:-1 / analyse=0x3:0x133 / me=umh / subme=10 / psy=1 / psy_rd=1.00:0.15 / mixed_ref=1 / me_range=32 / chroma_me=1 / trellis=2 / 8x8dct=1 / cqm=0 / deadzone=21,11 / fast_pskip=0 / chroma_qp_offset=-3 / threads=6 / lookahead_threads=1 / sliced_threads=0 / nr=0 / decimate=1 / interlaced=0 / bluray_compat=0 / constrained_intra=0 / bframes=10 / b_pyramid=2 / b_adapt=2 / b_bias=0 / direct=3 / weightb=1 / open_gop=0 / weightp=2 / keyint=240 / keyint_min=23 / scenecut=40 / intra_refresh=0 / rc_lookahead=60 / rc=crf / mbtree=0 / crf=19.0 / qcomp=0.60 / qpmin=0 / qpmax=69 / qpstep=4 / vbv_maxrate=30720 / vbv_bufsize=38400 / crf_max=0.0 / nal_hrd=none / filler=0 / ip_ratio=1.40 / pb_ratio=1.30 / aq=3:0.80
Language                    : English
Default                     : Yes
Forced                      : No

Audio #1
ID                          : 2
Format                      : AC-3
Format/Info                 : Audio Coding 3
Codec ID                    : A_AC3
Duration                    : 47 min 14 s
Bit rate mode               : Constant
Bit rate                    : 192 kb/s
Channel(s)                  : 2 channels
Channel positions           : Front: L R
Sampling rate               : 48.0 kHz
Frame rate                  : 31.250 FPS (1536 SPF)
Bit depth                   : 16 bits
Compression mode            : Lossy
Stream size                 : 64.9 MiB (6%)
Title                       : MVO [NGO] 2.0 192 Kbps
Language                    : Ukrainian
Service kind                : Complete Main
Default                     : Yes
Forced                      : Yes

Audio #2
ID                          : 3
Format                      : AC-3
Format/Info                 : Audio Coding 3
Codec ID                    : A_AC3
Duration                    : 47 min 14 s
Bit rate mode               : Constant
Bit rate                    : 448 kb/s
Channel(s)                  : 6 channels
Channel positions           : Front: L C R, Side: L R, LFE
Sampling rate               : 48.0 kHz
Frame rate                  : 31.250 FPS (1536 SPF)
Bit depth                   : 16 bits
Compression mode            : Lossy
Stream size                 : 151 MiB (13%)
Title                       : Original, 5.1 448 Kbps
Language                    : English
Service kind                : Complete Main
Default                     : No
Forced                      : No

Код:
[info]: frame I:561   Avg QP:16.38  size: 80805
[info]: frame P:17228 Avg QP:18.81  size: 28953
[info]: frame B:50183 Avg QP:21.28  size:  9192
[info]: consecutive B-frames:  3.4%  3.7%  6.1% 52.7% 11.0% 15.4%  2.9%  3.0%  0.7%  0.5%  0.7%
серія 6
Код:
Complete name               : E06 Escape. One Strange Rock (2018) [Ukr,Eng] AVC [Hurtom].
Format                      :
Format version              : Version 4 / Version 2
File size                   : 1.13 GiB
Duration                    : 47 min 17 s
Overall bit rate            : 3 423 kb/s
Movie name                  : Невідома планета Земля, с.06 Втеча / One Strange Rock e06 Escape (2018) [Ukr,Eng] AVC [Hurtom]
Released date               : 2018
Encoded date                : UTC 2018-06-06 14:41:47
Writing application         : v23.0.0 ('The Bride Said No') 64-bit
Writing library             : libebml v1.3.6 + v1.4.9
Cover                       : Yes
Comment                     : http://www.imdb.com/title/tt7651892/
Attachments                 : cover.jpg
Url                         : https://toloka.to/t89056

Video
ID                          : 1
Format                      : AVC
Format/Info                 : Advanced Video Codec
Format profile              : [email protected]
Format settings             : CABAC / 12 Ref Frames
Format settings, CABAC      : Yes
Format settings, ReFrames   : 12 frames
Codec ID                    : V_MPEG4/ISO/AVC
Duration                    : 47 min 17 s
Bit rate                    : 2 780 kb/s
Width                       : 1 024 pixels
Height                      : 576 pixels
Display aspect ratio        : 16:9
Frame rate mode             : Constant
Frame rate                  : 23.976 (24000/1001) FPS
Color space                 : YUV
Chroma subsampling          : 4:2:0
Bit depth                   : 8 bits
Scan type                   : Progressive
Bits/(Pixel*Frame)          : 0.197
Stream size                 : 940 MiB (81%)
Title                       : Невідома планета Земля, с.06 Втеча / One Strange Rock e06 Escape (2018) AVC [Hurtom]
Writing library             : core 155 r2901 7d0ff22
Encoding settings           : cabac=1 / ref=12 / deblock=1:-1:-1 / analyse=0x3:0x133 / me=umh / subme=10 / psy=1 / psy_rd=1.00:0.15 / mixed_ref=1 / me_range=32 / chroma_me=1 / trellis=2 / 8x8dct=1 / cqm=0 / deadzone=21,11 / fast_pskip=0 / chroma_qp_offset=-3 / threads=6 / lookahead_threads=1 / sliced_threads=0 / nr=0 / decimate=1 / interlaced=0 / bluray_compat=0 / constrained_intra=0 / bframes=10 / b_pyramid=2 / b_adapt=2 / b_bias=0 / direct=3 / weightb=1 / open_gop=0 / weightp=2 / keyint=240 / keyint_min=23 / scenecut=40 / intra_refresh=0 / rc_lookahead=60 / rc=crf / mbtree=0 / crf=19.0 / qcomp=0.60 / qpmin=0 / qpmax=69 / qpstep=4 / vbv_maxrate=30720 / vbv_bufsize=38400 / crf_max=0.0 / nal_hrd=none / filler=0 / ip_ratio=1.40 / pb_ratio=1.30 / aq=3:0.80
Language                    : English
Default                     : Yes
Forced                      : No

Audio #1
ID                          : 2
Format                      : AC-3
Format/Info                 : Audio Coding 3
Codec ID                    : A_AC3
Duration                    : 47 min 17 s
Bit rate mode               : Constant
Bit rate                    : 192 kb/s
Channel(s)                  : 2 channels
Channel positions           : Front: L R
Sampling rate               : 48.0 kHz
Frame rate                  : 31.250 FPS (1536 SPF)
Bit depth                   : 16 bits
Compression mode            : Lossy
Stream size                 : 64.9 MiB (6%)
Title                       : MVO [NGO] 2.0 192 Kbps
Language                    : Ukrainian
Service kind                : Complete Main
Default                     : Yes
Forced                      : Yes

Audio #2
ID                          : 3
Format                      : AC-3
Format/Info                 : Audio Coding 3
Codec ID                    : A_AC3
Duration                    : 47 min 17 s
Bit rate mode               : Constant
Bit rate                    : 448 kb/s
Channel(s)                  : 6 channels
Channel positions           : Front: L C R, Side: L R, LFE
Sampling rate               : 48.0 kHz
Frame rate                  : 31.250 FPS (1536 SPF)
Bit depth                   : 16 bits
Compression mode            : Lossy
Stream size                 : 152 MiB (13%)
Title                       : Original, 5.1 448 Kbps
Language                    : English
Service kind                : Complete Main
Default                     : No
Forced                      : No

Код:
[info]: frame I:607   Avg QP:16.26  size: 85885
[info]: frame P:16413 Avg QP:18.55  size: 30516
[info]: frame B:51010 Avg QP:20.88  size:  8489
[info]: consecutive B-frames:  2.3%  2.6%  4.7% 55.8% 12.0% 17.0%  2.4%  1.7%  0.6%  0.2%  0.7%
серія 7
Код:
Complete name               : E07 Terraform. One Strange Rock (2018) [Ukr,Eng] AVC [Hurtom].
Format                      :
Format version              : Version 4 / Version 2
File size                   : 1.10 GiB
Duration                    : 47 min 16 s
Overall bit rate            : 3 323 kb/s
Movie name                  : Невідома планета Земля, с.07 Планетоформування / One Strange Rock e07 Terraform (2018) [Ukr,Eng] AVC [Hurtom]
Released date               : 2018
Encoded date                : UTC 2018-06-06 19:10:46
Writing application         : v23.0.0 ('The Bride Said No') 64-bit
Writing library             : libebml v1.3.6 + v1.4.9
Cover                       : Yes
Comment                     : http://www.imdb.com/title/tt7651892/
Attachments                 : cover.jpg
Url                         : https://toloka.to/t89056

Video
ID                          : 1
Format                      : AVC
Format/Info                 : Advanced Video Codec
Format profile              : [email protected]
Format settings             : CABAC / 12 Ref Frames
Format settings, CABAC      : Yes
Format settings, ReFrames   : 12 frames
Codec ID                    : V_MPEG4/ISO/AVC
Duration                    : 47 min 16 s
Bit rate                    : 2 680 kb/s
Width                       : 1 024 pixels
Height                      : 576 pixels
Display aspect ratio        : 16:9
Frame rate mode             : Constant
Frame rate                  : 23.976 (24000/1001) FPS
Color space                 : YUV
Chroma subsampling          : 4:2:0
Bit depth                   : 8 bits
Scan type                   : Progressive
Bits/(Pixel*Frame)          : 0.190
Stream size                 : 906 MiB (81%)
Title                       : Невідома планета Земля, с.07 Планетоформування / One Strange Rock e07 Terraform (2018) AVC [Hurtom]
Writing library             : core 155 r2901 7d0ff22
Encoding settings           : cabac=1 / ref=12 / deblock=1:-1:-1 / analyse=0x3:0x133 / me=umh / subme=10 / psy=1 / psy_rd=1.00:0.15 / mixed_ref=1 / me_range=32 / chroma_me=1 / trellis=2 / 8x8dct=1 / cqm=0 / deadzone=21,11 / fast_pskip=0 / chroma_qp_offset=-3 / threads=6 / lookahead_threads=1 / sliced_threads=0 / nr=0 / decimate=1 / interlaced=0 / bluray_compat=0 / constrained_intra=0 / bframes=10 / b_pyramid=2 / b_adapt=2 / b_bias=0 / direct=3 / weightb=1 / open_gop=0 / weightp=2 / keyint=240 / keyint_min=23 / scenecut=40 / intra_refresh=0 / rc_lookahead=60 / rc=crf / mbtree=0 / crf=18.5 / qcomp=0.60 / qpmin=0 / qpmax=69 / qpstep=4 / vbv_maxrate=30720 / vbv_bufsize=38400 / crf_max=0.0 / nal_hrd=none / filler=0 / ip_ratio=1.40 / pb_ratio=1.30 / aq=3:0.80
Language                    : English
Default                     : Yes
Forced                      : No

Audio #1
ID                          : 2
Format                      : AC-3
Format/Info                 : Audio Coding 3
Codec ID                    : A_AC3
Duration                    : 47 min 16 s
Bit rate mode               : Constant
Bit rate                    : 192 kb/s
Channel(s)                  : 2 channels
Channel positions           : Front: L R
Sampling rate               : 48.0 kHz
Frame rate                  : 31.250 FPS (1536 SPF)
Bit depth                   : 16 bits
Compression mode            : Lossy
Stream size                 : 64.9 MiB (6%)
Title                       : MVO [NGO] 2.0 192 Kbps
Language                    : Ukrainian
Service kind                : Complete Main
Default                     : Yes
Forced                      : Yes

Audio #2
ID                          : 3
Format                      : AC-3
Format/Info                 : Audio Coding 3
Codec ID                    : A_AC3
Duration                    : 47 min 16 s
Bit rate mode               : Constant
Bit rate                    : 448 kb/s
Channel(s)                  : 6 channels
Channel positions           : Front: L C R, Side: L R, LFE
Sampling rate               : 48.0 kHz
Frame rate                  : 31.250 FPS (1536 SPF)
Bit depth                   : 16 bits
Compression mode            : Lossy
Stream size                 : 151 MiB (13%)
Title                       : Original, 5.1 448 Kbps
Language                    : English
Service kind                : Complete Main
Default                     : No
Forced                      : No

Код:
[info]: frame I:561   Avg QP:16.02  size: 95671
[info]: frame P:13535 Avg QP:18.15  size: 32793
[info]: frame B:53901 Avg QP:20.51  size:  8398
[info]: consecutive B-frames:  1.8%  1.6%  5.0% 18.1% 14.9% 38.0%  8.6%  5.8%  5.1%  0.5%  0.7%
серія 8
Код:
Complete name               : E08 Alien. One Strange Rock (2018) [Ukr,Eng] AVC [Hurtom].
Format                      :
Format version              : Version 4 / Version 2
File size                   : 1.27 GiB
Duration                    : 47 min 14 s
Overall bit rate            : 3 854 kb/s
Movie name                  : Невідома планета Земля, с.08 Інопланетяни / One Strange Rock e08 Alien (2018) [Ukr,Eng] AVC [Hurtom]
Released date               : 2018
Encoded date                : UTC 2018-06-06 19:20:05
Writing application         : v23.0.0 ('The Bride Said No') 64-bit
Writing library             : libebml v1.3.6 + v1.4.9
Cover                       : Yes
Comment                     : http://www.imdb.com/title/tt7651892/
Attachments                 : cover.jpg
ARTIST                      : Вілл Сміт / Will Smith

Video
ID                          : 1
Format                      : AVC
Format/Info                 : Advanced Video Codec
Format profile              : [email protected]
Format settings             : CABAC / 12 Ref Frames
Format settings, CABAC      : Yes
Format settings, ReFrames   : 12 frames
Codec ID                    : V_MPEG4/ISO/AVC
Duration                    : 47 min 14 s
Bit rate                    : 3 212 kb/s
Width                       : 1 024 pixels
Height                      : 576 pixels
Display aspect ratio        : 16:9
Frame rate mode             : Constant
Frame rate                  : 23.976 (24000/1001) FPS
Color space                 : YUV
Chroma subsampling          : 4:2:0
Bit depth                   : 8 bits
Scan type                   : Progressive
Bits/(Pixel*Frame)          : 0.227
Stream size                 : 1.06 GiB (83%)
Title                       : Невідома планета Земля, с.08 Інопланетяни / One Strange Rock e08 Alien (2018) AVC [Hurtom]
Writing library             : core 155 r2901 7d0ff22
Encoding settings           : cabac=1 / ref=12 / deblock=1:-1:-1 / analyse=0x3:0x133 / me=umh / subme=10 / psy=1 / psy_rd=1.00:0.15 / mixed_ref=1 / me_range=32 / chroma_me=1 / trellis=2 / 8x8dct=1 / cqm=0 / deadzone=21,11 / fast_pskip=0 / chroma_qp_offset=-3 / threads=6 / lookahead_threads=1 / sliced_threads=0 / nr=0 / decimate=1 / interlaced=0 / bluray_compat=0 / constrained_intra=0 / bframes=10 / b_pyramid=2 / b_adapt=2 / b_bias=0 / direct=3 / weightb=1 / open_gop=0 / weightp=2 / keyint=240 / keyint_min=23 / scenecut=40 / intra_refresh=0 / rc_lookahead=60 / rc=crf / mbtree=0 / crf=19.0 / qcomp=0.60 / qpmin=0 / qpmax=69 / qpstep=4 / vbv_maxrate=30720 / vbv_bufsize=38400 / crf_max=0.0 / nal_hrd=none / filler=0 / ip_ratio=1.40 / pb_ratio=1.30 / aq=3:0.80
Language                    : English
Default                     : Yes
Forced                      : No

Audio #1
ID                          : 2
Format                      : AC-3
Format/Info                 : Audio Coding 3
Codec ID                    : A_AC3
Duration                    : 47 min 14 s
Bit rate mode               : Constant
Bit rate                    : 192 kb/s
Channel(s)                  : 2 channels
Channel positions           : Front: L R
Sampling rate               : 48.0 kHz
Frame rate                  : 31.250 FPS (1536 SPF)
Bit depth                   : 16 bits
Compression mode            : Lossy
Stream size                 : 64.9 MiB (5%)
Title                       : MVO [NGO] 2.0 192 Kbps
Language                    : Ukrainian
Service kind                : Complete Main
Default                     : Yes
Forced                      : Yes

Audio #2
ID                          : 3
Format                      : AC-3
Format/Info                 : Audio Coding 3
Codec ID                    : A_AC3
Duration                    : 47 min 14 s
Bit rate mode               : Constant
Bit rate                    : 448 kb/s
Channel(s)                  : 6 channels
Channel positions           : Front: L C R, Side: L R, LFE
Sampling rate               : 48.0 kHz
Frame rate                  : 31.250 FPS (1536 SPF)
Bit depth                   : 16 bits
Compression mode            : Lossy
Stream size                 : 151 MiB (12%)
Title                       : Original, 5.1 448 Kbps
Language                    : English
Service kind                : Complete Main
Default                     : No
Forced                      : No

Код:
[info]: frame I:557   Avg QP:16.42  size: 78123
[info]: frame P:15058 Avg QP:18.70  size: 32716
[info]: frame B:52334 Avg QP:21.19  size: 11496
[info]: consecutive B-frames:  2.4%  2.4%  7.2% 26.4% 17.7% 31.6%  6.0%  2.7%  2.6%  0.3%  0.7%
серія 9
Код:
Complete name               : E09 Awakening. One Strange Rock (2018) [Ukr,Eng] AVC [Hurtom].
Format                      :
Format version              : Version 4 / Version 2
File size                   : 1.10 GiB
Duration                    : 47 min 16 s
Overall bit rate            : 3 323 kb/s
Movie name                  : Невідома планета Земля, с.09 Awakening / One Strange Rock e09 Awakening (2018) [Ukr,Eng] AVC [Hurtom]
Released date               : 2018
Encoded date                : UTC 2018-06-06 19:34:32
Writing application         : v23.0.0 ('The Bride Said No') 64-bit
Writing library             : libebml v1.3.6 + v1.4.9
Cover                       : Yes
Comment                     : http://www.imdb.com/title/tt7651892/
Attachments                 : cover.jpg
Url                         : https://toloka.to/t89056

Video
ID                          : 1
Format                      : AVC
Format/Info                 : Advanced Video Codec
Format profile              : [email protected]
Format settings             : CABAC / 12 Ref Frames
Format settings, CABAC      : Yes
Format settings, ReFrames   : 12 frames
Codec ID                    : V_MPEG4/ISO/AVC
Duration                    : 47 min 16 s
Bit rate                    : 2 680 kb/s
Width                       : 1 024 pixels
Height                      : 576 pixels
Display aspect ratio        : 16:9
Frame rate mode             : Constant
Frame rate                  : 23.976 (24000/1001) FPS
Color space                 : YUV
Chroma subsampling          : 4:2:0
Bit depth                   : 8 bits
Scan type                   : Progressive
Bits/(Pixel*Frame)          : 0.190
Stream size                 : 906 MiB (81%)
Title                       : Невідома планета Земля, с.09 Пробудження / One Strange Rock e09 Awakening (2018) AVC [Hurtom]
Writing library             : core 155 r2901 7d0ff22
Encoding settings           : cabac=1 / ref=12 / deblock=1:-1:-1 / analyse=0x3:0x133 / me=umh / subme=10 / psy=1 / psy_rd=1.00:0.15 / mixed_ref=1 / me_range=32 / chroma_me=1 / trellis=2 / 8x8dct=1 / cqm=0 / deadzone=21,11 / fast_pskip=0 / chroma_qp_offset=-3 / threads=6 / lookahead_threads=1 / sliced_threads=0 / nr=0 / decimate=1 / interlaced=0 / bluray_compat=0 / constrained_intra=0 / bframes=10 / b_pyramid=2 / b_adapt=2 / b_bias=0 / direct=3 / weightb=1 / open_gop=0 / weightp=2 / keyint=240 / keyint_min=23 / scenecut=40 / intra_refresh=0 / rc_lookahead=60 / rc=crf / mbtree=0 / crf=19.0 / qcomp=0.60 / qpmin=0 / qpmax=69 / qpstep=4 / vbv_maxrate=30720 / vbv_bufsize=38400 / crf_max=0.0 / nal_hrd=none / filler=0 / ip_ratio=1.40 / pb_ratio=1.30 / aq=3:0.80
Language                    : English
Default                     : Yes
Forced                      : No

Audio #1
ID                          : 2
Format                      : AC-3
Format/Info                 : Audio Coding 3
Codec ID                    : A_AC3
Duration                    : 47 min 16 s
Bit rate mode               : Constant
Bit rate                    : 192 kb/s
Channel(s)                  : 2 channels
Channel positions           : Front: L R
Sampling rate               : 48.0 kHz
Frame rate                  : 31.250 FPS (1536 SPF)
Bit depth                   : 16 bits
Compression mode            : Lossy
Stream size                 : 64.9 MiB (6%)
Title                       : MVO [NGO] 2.0 192 Kbps
Language                    : Ukrainian
Service kind                : Complete Main
Default                     : Yes
Forced                      : Yes

Audio #2
ID                          : 3
Format                      : AC-3
Format/Info                 : Audio Coding 3
Codec ID                    : A_AC3
Duration                    : 47 min 16 s
Bit rate mode               : Constant
Bit rate                    : 448 kb/s
Channel(s)                  : 6 channels
Channel positions           : Front: L C R, Side: L R, LFE
Sampling rate               : 48.0 kHz
Frame rate                  : 31.250 FPS (1536 SPF)
Bit depth                   : 16 bits
Compression mode            : Lossy
Stream size                 : 151 MiB (13%)
Title                       : Original, 5.1 448 Kbps
Language                    : English
Service kind                : Complete Main
Default                     : No
Forced                      : No

Код:
[info]: frame I:621   Avg QP:16.79  size: 73914
[info]: frame P:15121 Avg QP:18.84  size: 28688
[info]: frame B:52255 Avg QP:21.20  size:  9002
[info]: consecutive B-frames:  2.7%  2.7%  7.7% 24.5% 16.5% 31.9%  6.4%  3.0%  3.3%  0.5%  0.7%
серія 10
Код:
Complete name               : E10 Home. One Strange Rock (2018) [Ukr,Eng] AVC [Hurtom].
Format                      :
Format version              : Version 4 / Version 2
File size                   : 995 MiB
Duration                    : 47 min 16 s
Overall bit rate            : 2 944 kb/s
Movie name                  : Невідома планета Земля, с.10 Дім / One Strange Rock e10 Home (2018) [Ukr,Eng] AVC [Hurtom]
Released date               : 2018
Encoded date                : UTC 2018-06-06 19:41:15
Writing application         : v23.0.0 ('The Bride Said No') 64-bit
Writing library             : libebml v1.3.6 + v1.4.9
Cover                       : Yes
Comment                     : http://www.imdb.com/title/tt7651892/
Attachments                 : cover.jpg
Url                         : https://toloka.to/t89056

Video
ID                          : 1
Format                      : AVC
Format/Info                 : Advanced Video Codec
Format profile              : [email protected]
Format settings             : CABAC / 12 Ref Frames
Format settings, CABAC      : Yes
Format settings, ReFrames   : 12 frames
Codec ID                    : V_MPEG4/ISO/AVC
Duration                    : 47 min 16 s
Bit rate                    : 2 302 kb/s
Width                       : 1 024 pixels
Height                      : 576 pixels
Display aspect ratio        : 16:9
Frame rate mode             : Constant
Frame rate                  : 23.976 (24000/1001) FPS
Color space                 : YUV
Chroma subsampling          : 4:2:0
Bit depth                   : 8 bits
Scan type                   : Progressive
Bits/(Pixel*Frame)          : 0.163
Stream size                 : 778 MiB (78%)
Title                       : Невідома планета Земля, с.10 Дім / One Strange Rock e10 Home (2018) AVC [Hurtom]
Writing library             : core 155 r2901 7d0ff22
Encoding settings           : cabac=1 / ref=12 / deblock=1:-1:-1 / analyse=0x3:0x133 / me=umh / subme=10 / psy=1 / psy_rd=1.00:0.15 / mixed_ref=1 / me_range=32 / chroma_me=1 / trellis=2 / 8x8dct=1 / cqm=0 / deadzone=21,11 / fast_pskip=0 / chroma_qp_offset=-3 / threads=6 / lookahead_threads=1 / sliced_threads=0 / nr=0 / decimate=1 / interlaced=0 / bluray_compat=0 / constrained_intra=0 / bframes=10 / b_pyramid=2 / b_adapt=2 / b_bias=0 / direct=3 / weightb=1 / open_gop=0 / weightp=2 / keyint=240 / keyint_min=23 / scenecut=40 / intra_refresh=0 / rc_lookahead=60 / rc=crf / mbtree=0 / crf=19.0 / qcomp=0.60 / qpmin=0 / qpmax=69 / qpstep=4 / vbv_maxrate=30720 / vbv_bufsize=38400 / crf_max=0.0 / nal_hrd=none / filler=0 / ip_ratio=1.40 / pb_ratio=1.30 / aq=3:0.80
Language                    : English
Default                     : Yes
Forced                      : No

Audio #1
ID                          : 2
Format                      : AC-3
Format/Info                 : Audio Coding 3
Codec ID                    : A_AC3
Duration                    : 47 min 16 s
Bit rate mode               : Constant
Bit rate                    : 192 kb/s
Channel(s)                  : 2 channels
Channel positions           : Front: L R
Sampling rate               : 48.0 kHz
Frame rate                  : 31.250 FPS (1536 SPF)
Bit depth                   : 16 bits
Compression mode            : Lossy
Stream size                 : 64.9 MiB (7%)
Title                       : MVO [NGO] 2.0 192 Kbps
Language                    : Ukrainian
Service kind                : Complete Main
Default                     : Yes
Forced                      : Yes

Audio #2
ID                          : 3
Format                      : AC-3
Format/Info                 : Audio Coding 3
Codec ID                    : A_AC3
Duration                    : 47 min 16 s
Bit rate mode               : Constant
Bit rate                    : 448 kb/s
Channel(s)                  : 6 channels
Channel positions           : Front: L C R, Side: L R, LFE
Sampling rate               : 48.0 kHz
Frame rate                  : 31.250 FPS (1536 SPF)
Bit depth                   : 16 bits
Compression mode            : Lossy
Stream size                 : 151 MiB (15%)
Title                       : Original, 5.1 448 Kbps
Language                    : English
Service kind                : Complete Main
Default                     : No
Forced                      : No

Код:
[info]: frame I:593   Avg QP:15.30  size: 71252
[info]: frame P:13911 Avg QP:17.98  size: 25474
[info]: frame B:53493 Avg QP:20.31  size:  7839
[info]: consecutive B-frames:  2.0%  1.8%  5.4% 20.7% 16.4% 35.5%  8.1%  3.5%  5.1%  0.8%  0.9%


Джерело:
Над релізом працювали:
Sando7 - запис
Hanway - синхронізація
igor911 - ріп

Велика подяка AngryBirdsUA

12.04.2018 Реліз оновлено - додано другу серію

02.05.2018 Реліз оновлено - додано серії 3-5

06.06.2018 Реліз оновлено - додано серії 6-10


Бронзовий реліз (на рейтинг впливає 75% завантаженого)
 Трекер:    Зареєстрований   

Завантажити / скачати торрент



відео для новачків



 Зареєстрований:   2018-06-06 22:49
 Розмір:   10.93 GB 
 Оцінка:   9.8/10 (Голосів: 87)
   
TWISTER 
Новенький


З нами з: 14.06.09
Востаннє: 08.08.20
Повідомлень: 22

2018-04-03 13:25  
Дякую за реліз)
Anonymous 







2018-04-12 16:31  
Реліз оновлено - додано другу серію
-_-B_E_N_D_E_R-_- 
Забанено
Забанено


З нами з: 09.01.14
Востаннє: 22.05.18
Повідомлень: 896

2018-04-12 20:33  

jimtornado 
Новенький


З нами з: 15.04.16
Востаннє: 03.02.19
Повідомлень: 14

2018-04-13 23:45  
О круть крутецька. Щиро дякую.
molots 
Новенький


З нами з: 24.01.09
Востаннє: 02.08.20
Повідомлень: 15

2018-04-16 20:52  
водорості тулять. дякую. так багато таємниць. хочу знати усе.
SVARGA7 
Частий відвідувач


З нами з: 16.11.11
Востаннє: 08.08.20
Повідомлень: 46

2018-04-23 07:46  
Буде продовження?
Anonymous 







2018-04-23 08:21  
SVARGA7, буде, як з'явиться на першоджерелі https://toloka.to/t88641
nosferatumes 
Свій


З нами з: 12.10.16
Востаннє: 10.08.20
Повідомлень: 82

2018-04-23 08:39  
Прекрасно знята пізнавальна документалка. Очікую продовження. Величезне ДЯКУЮ релізеру. 10/10
ukrnet 
Свій


З нами з: 03.01.14
Востаннє: 09.08.20
Повідомлень: 95

2018-05-01 22:00  
Ау народ коли буде продовження , чого так тихо?
Anonymous 







2018-05-02 01:29  
ukrnet написано:
коли буде продовження , чого так тихо?

https://toloka.to/t89056#993052

Anonymous 







2018-05-02 12:53  
Реліз оновлено - додано серії 3-5
ukrnet 
Свій


З нами з: 03.01.14
Востаннє: 09.08.20
Повідомлень: 95

2018-05-02 22:25  
нарешті, дякую!
Ryzak 
Новенький


З нами з: 12.08.08
Востаннє: 30.07.20
Повідомлень: 16

2018-05-19 15:19  
А чи відомі дати виходу наступних серій українською?
Фільм кращий за останні кілька років. Дякую!

Anonymous 







2018-05-19 17:15  
bogdan8249 
Відео Гуртом - фільмокрай
Відео Гуртом - фільмокрай


З нами з: 09.08.08
Востаннє: 09.08.20
Повідомлень: 1232

2018-06-06 22:00  
Цитата:
SVARGA7, буде, як з'явиться на першоджерелі https://toloka.to/t88641

Там вже 10 з 10.

Anonymous 







2018-06-06 22:51  
Реліз оновлено - додано серії 6-10, повний сезон.
Aleks_Cat 
Частий відвідувач


З нами з: 14.04.14
Востаннє: 09.08.20
Повідомлень: 41

2018-06-24 08:12  
001
nosferatumes 
Свій


З нами з: 12.10.16
Востаннє: 10.08.20
Повідомлень: 82

2018-07-13 11:35  
Чудова пізнавальна доументалка. Цікавий погляд на нашу планету. З явним підтекстом збереження природи планети Земля. Побільше б таких документальних фільмів, в яких цікаво, пізнавально та захоплююче. З кожним роком такі документальні фільми прогресують в бік покращення. Однозначно до перегляду 10/10.
кокошнік 
Попереджень: 1
Попереджень: 1 


З нами з: 09.06.15
Востаннє: 27.05.20
Повідомлень: 2139

2018-07-13 14:18  
nosferatumes написано:
Побільше б таких документальних фільмів, в яких цікаво, пізнавально та захоплююче.

їх є якась кількість щоби закрити свій вечір ними,
проблема в тому, що декілька каналів, купують права, озвучують, кидають в ефір і все,
хто не побачив канал невинуватий,
і ніхто незаписує з ефіру такі передачі для викладання в офлайн, і каналам це долампочки(((

-_-В_E_N_D_Е_R-_- 
Забанено
Забанено


З нами з: 11.07.18
Востаннє: 23.08.18
Повідомлень: 528

2018-07-13 14:21  
кокошнік написано:
і ніхто незаписує з ефіру такі передачі для викладання в офлайн

Записують просто нема бажаючих це викладати

кокошнік 
Попереджень: 1
Попереджень: 1 


З нами з: 09.06.15
Востаннє: 27.05.20
Повідомлень: 2139

2018-07-13 14:25  
-_-В_E_N_D_Е_R-_- написано:
Записують просто нема бажаючих це викладати

це як колекціонери старовини?
накуплять собі рідкісних речей та любуються собі ними під покривалом в ліжку, кайфуючи, що це більше ніхто не бачить?
оригінально(((

-_-В_E_N_D_Е_R-_- 
Забанено
Забанено


З нами з: 11.07.18
Востаннє: 23.08.18
Повідомлень: 528

2018-07-13 14:27  
кокошнік
Ні, просто нема часу на це, бажаєш зробити кілька таких релізів?
записи Sando7 https://ifnmu-my.sharepoint.com/:f:/g/personal/romanov_my_ifnmu_edu_ua/El9V3Mce3qFBswTrtV4TdicByB9AcICaHDnVBo9yGLFu6A?e=XSgQYd
Більше документалок можеш знайти у DareDevil96

dimniak 
Новенький


З нами з: 12.07.11
Востаннє: 09.08.20
Повідомлень: 1

2019-02-26 22:44  
о нарешті щось цікаве
[email protected] 
Новенький


З нами з: 25.09.19
Востаннє: 31.07.20
Повідомлень: 1

2020-02-21 13:57  
Неймовірно цікава, захоплююча, вражаюча, видовищна телепередача! Справжній ШЕДЕВР!!!
ГУРТОМ дуже прошу Вас викладати побільше подібних телепередач - про космос, дослідження від Нешнал Географік та Діскавері!!!!!!! Я б із задоволенням донатив на такий контент! Створіть збір коштів на озвучення таких телепередач БУДЬ ЛАСКА!

Nahalist 
VIP


З нами з: 13.12.13
Востаннє: 08.08.20
Повідомлень: 282

2020-03-19 22:39  
Супер, дивом натрапив на це!! Дякую!
Форкуш 
VIP


З нами з: 03.02.10
Востаннє: 09.08.20
Повідомлень: 2813

2020-07-01 20:43  
Ніби все класно, але не качає. 7/10
Anonymous 







2020-07-01 20:47  
Форкуш, 28 сідів - це означає, що проблема десь в тебе. + тебе показує у списку сідів.
Форкуш 
VIP


З нами з: 03.02.10
Востаннє: 09.08.20
Повідомлень: 2813

2020-07-01 21:02  
Anonymous
Я мав на увазі не захоплює саме кіно. Не цікаве і весь час відриваєшся на соцмережі.

Ваш часовий пояс: GMT + 2 Години

Нова тема   Відповісти