Обличчя зі шрамом / Scarface (1983) 1080p H.265 3xUkr/Eng

Нові коментарі

Нова тема   Відповісти
Автор Повідомлення
Anonymous 







2018-04-03 01:48  
Обличчя зі шрамом / Scarface (1983) 1080p H.265 3xUkr/Eng

Обличчя зі шрамом / Scarface (1983) 1080p H.265 3xUkr/Eng


Жанр: драма, кримінал
Країна: США



Кінокомпанія: Universal Pictures
Режисер: Браян Де Пальма (Brian De Palma)
Актори: Аль Пачіно (Al Pacino), Стів Бауер (Steven Bauer), Мішель Пфайффер (Michelle Pfeiffer), Роберт Лоґґіа (Robert Loggia), Мері Елізабет Мастрантоніо (Mary Elizabeth Mastrantonio) та інші.

Сюжет:
Навесні 1980 року був відкритий порт Мейріел Харбор, і тисячі кубинських біженців ринули у Сполучені Штати на пошуки Американської Мрії. Один з них знайшов її на залитих сонцем вулицях Маямі. Багатство, влада і пристрасть перевершили навіть найнеймовірніші його мрії. Його звали Тоні Монтана. Світ запам'ятав його під іншим іменем - 'Обличчя зі шрамом'...



Додаткова інформація:
В перекладі каналу ТРК "Україна" є 40-ка секундна вставка озвучки "СТБ", під час реклами випало ці 40 секунд,
і якшо я не помиляюсь цей фільм по ТРК "Україна" транслювали всього один раз, без повторів.



Тривалість: 02:50:00
Якість:
Відео:
кодек: H.265 (HEVC)
розмір кадру: 1920 х 816
бітрейт: 4 472 кб/с
бітова глибина: 10 біт
Увага! Перед завантаженням переконайтесь, що ваш пристрій відтворення (та/або ПЗ) підтримують H.265 (HEVC) та 10 біт

Аудіо # 1:
мова: українська
переклад: багатоголосий закадровий | "ТакТребаПродакшн"
кодек: 2.0
бітрейт: 192 кб/с

Аудіо # 2:
мова: українська
переклад: двоголосий закадровий
кодек: 2.0
бітрейт: 192 кб/с

Аудіо # 3:
мова: українська
переклад: двоголосий закадровий
кодек: 2.0
бітрейт: 192 кб/с

Аудіо # 4:
мова: англійська
переклад: оригінал
кодек: 5.1
бітрейт: 384 кб/с
Info
General
Unique ID : 291479775934126537234655062023594708560 (0xDB48F67E5A2A0B239BC3E5F1033E0E50)
Complete name : D:\Video\Scarface (1983) 1080p H.265 [3UKR_ENG].
Format :
Format version : Version 4 / Version 2
File size : 6.45 GiB
Duration : 2 h 50 min
Overall bit rate : 5 434 kb/s
Encoded date : UTC 2018-04-10 23:49:10
Writing application : v22.0.0 ('At The End Of The World') 64-bit
Writing library : libebml v1.3.5 + v1.4.8

Video
ID : 1
Format : HEVC
Format/Info : High Efficiency Video Coding
Format profile : Main [email protected]@Main
Codec ID : V_MPEGH/ISO/HEVC
Duration : 2 h 50 min
Bit rate : 4 472 kb/s
Width : 1 920 pixels
Height : 816 pixels
Display aspect ratio : 2.35:1
Frame rate mode : Constant
Frame rate : 23.976 (24000/1001) FPS
Color space : YUV
Chroma subsampling : 4:2:0
Bit depth : 10 bits
Bits/(Pixel*Frame) : 0.119
Stream size : 5.31 GiB (82%)
Writing library : x265 2.7+2-22c127ff05d5:[Windows][GCC 8.0.1][64 bit] 10bit
Encoding settings : cpuid=1173503 / frame-threads=3 / numa-pools=8 / wpp / no-pmode / no-pme / no-psnr / no-ssim / log-level=2 / input-csp=1 / input-res=1920x816 / interlace=0 / total-frames=244557 / level-idc=0 / high-tier=1 / uhd-bd=0 / ref=4 / no-allow-non-conformance / no-repeat-headers / annexb / no-aud / no-hrd / info / hash=0 / no-temporal-layers / open-gop / min-keyint=23 / keyint=250 / gop-lookahead=0 / bframes=4 / b-adapt=2 / b-pyramid / bframe-bias=0 / rc-lookahead=25 / lookahead-slices=4 / scenecut=40 / radl=0 / no-intra-refresh / ctu=64 / min-cu-size=8 / rect / no-amp / max-tu-size=32 / tu-inter-depth=1 / tu-intra-depth=1 / limit-tu=0 / rdoq-level=2 / dynamic-rd=0.00 / ssim-rd / signhide / no-tskip / nr-intra=0 / nr-inter=0 / no-constrained-intra / strong-intra-smoothing / max-merge=3 / limit-refs=3 / limit-modes / me=3 / subme=3 / merange=57 / temporal-mvp / weightp / no-weightb / no-analyze-src-pics / deblock=0:0 / sao / no-sao-non-deblock / rd=4 / no-early-skip / rskip / no-fast-intra / no-tskip-fast / no-cu-lossless / no-b-intra / no-splitrd-skip / rdpenalty=0 / psy-rd=0.00 / psy-rdoq=1.00 / no-rd-refine / no-lossless / cbqpoffs=0 / crqpoffs=0 / rc=crf / crf=22.0 / qcomp=0.60 / qpstep=4 / stats-write=0 / stats-read=0 / ipratio=1.40 / pbratio=1.30 / aq-mode=3 / aq-strength=1.00 / cutree / zone-count=0 / no-strict-cbr / qg-size=32 / no-rc-grain / qpmax=69 / qpmin=0 / no-const-vbv / sar=0 / overscan=0 / videoformat=5 / range=0 / colorprim=2 / transfer=2 / colormatrix=2 / chromaloc=0 / display-window=0 / max-cll=0,0 / min-luma=0 / max-luma=1023 / log2-max-poc-lsb=8 / vui-timing-info / vui-hrd-info / slices=1 / no-opt-qp-pps / no-opt-ref-list-length-pps / no-multi-pass-opt-rps / scenecut-bias=0.05 / no-opt-cu-delta-qp / no-aq-motion / no-hdr / no-hdr-opt / no-dhdr10-opt / analysis-reuse-level=5 / scale-factor=0 / refine-intra=0 / refine-inter=0 / refine-mv=0 / no-limit-sao / ctu-info=0 / no-lowpass-dct / refine-mv-type=0 / copy-pic=1
Language : English
Default : Yes
Forced : No

Audio #1
ID : 2
Format : AC-3
Format/Info : Audio Coding 3
Codec ID : A_AC3
Duration : 2 h 50 min
Bit rate mode : Constant
Bit rate : 192 kb/s
Channel(s) : 2 channels
Channel positions : Front: L R
Sampling rate : 48.0 kHz
Frame rate : 31.250 FPS (1536 SPF)
Bit depth : 16 bits
Compression mode : Lossy
Stream size : 233 MiB (4%)
Title : TRK Ukraina
Language : Ukrainian
Service kind : Complete Main
Default : Yes
Forced : No

Audio #2
ID : 3
Format : AC-3
Format/Info : Audio Coding 3
Codec ID : A_AC3
Duration : 2 h 50 min
Bit rate mode : Constant
Bit rate : 192 kb/s
Channel(s) : 2 channels
Channel positions : Front: L R
Sampling rate : 48.0 kHz
Frame rate : 31.250 FPS (1536 SPF)
Bit depth : 16 bits
Compression mode : Lossy
Stream size : 233 MiB (4%)
Title : ICTV
Language : Ukrainian
Service kind : Complete Main
Default : No
Forced : No

Audio #3
ID : 4
Format : AC-3
Format/Info : Audio Coding 3
Codec ID : A_AC3
Duration : 2 h 50 min
Bit rate mode : Constant
Bit rate : 192 kb/s
Channel(s) : 2 channels
Channel positions : Front: L R
Sampling rate : 48.0 kHz
Frame rate : 31.250 FPS (1536 SPF)
Bit depth : 16 bits
Compression mode : Lossy
Stream size : 233 MiB (4%)
Title : CTБ
Language : Ukrainian
Service kind : Complete Main
Default : No
Forced : No

Audio #4
ID : 5
Format : AC-3
Format/Info : Audio Coding 3
Codec ID : A_AC3
Duration : 2 h 50 min
Bit rate mode : Constant
Bit rate : 384 kb/s
Channel(s) : 6 channels
Channel positions : Front: L C R, Side: L R, LFE
Sampling rate : 48.0 kHz
Frame rate : 31.250 FPS (1536 SPF)
Bit depth : 16 bits
Compression mode : Lossy
Stream size : 467 MiB (7%)
Language : English
Service kind : Complete Main
Default : No
Forced : No

Menu
00:00:00.000 : en:00:00:00.000
00:08:11.574 : en:00:08:11.574
00:10:55.238 : en:00:10:55.238
00:13:40.194 : en:00:13:40.194
00:15:43.025 : en:00:15:43.025
00:20:58.299 : en:00:20:58.299
00:29:51.289 : en:00:29:51.289
00:33:09.362 : en:00:33:09.362
00:34:42.539 : en:00:34:42.539
00:43:13.174 : en:00:43:13.174
00:46:46.053 : en:00:46:46.053
00:50:45.251 : en:00:50:45.251
00:59:02.706 : en:00:59:02.706
01:04:15.643 : en:01:04:15.643
01:08:20.471 : en:01:08:20.471
01:12:57.540 : en:01:12:57.540
01:17:17.842 : en:01:17:17.842
01:23:33.133 : en:01:23:33.133
01:28:48.323 : en:01:28:48.323
01:33:44.244 : en:01:33:44.244
01:43:31.497 : en:01:43:31.497
01:47:01.707 : en:01:47:01.707
01:51:48.410 : en:01:51:48.410
01:57:19.991 : en:01:57:19.991
02:02:43.106 : en:02:02:43.106
02:07:08.204 : en:02:07:08.204
02:13:58.405 : en:02:13:58.405
02:16:04.448 : en:02:16:04.448
02:21:46.081 : en:02:21:46.081
02:24:22.779 : en:02:24:22.779
02:30:37.862 : en:02:30:37.862
02:35:14.889 : en:02:35:14.889
02:37:33.069 : en:02:37:33.069
02:40:04.303 : en:02:40:04.303
02:43:21.000 : en:02:43:21.000
Скріншоти



Джерело:
Особиста оцінка: 0 - не дивився


Срібний реліз (на рейтинг впливає 50% завантаженого)
 Трекер:    Зареєстрований   

Завантажити / скачати фільм українською



відео для новачків



 Зареєстрований:   2018-04-11 03:03
 Розмір:   6.45 GB 
 Оцінка фільму:   9/10 (Голосів: 10)
   
uaxpasha 
VIP


З нами з: 05.08.12
Востаннє: 23.09.20
Повідомлень: 346

2018-04-05 22:44  
igor302 написано:
Особиста оцінка: 0 - не дивився

Не вірю

Anonymous 







2018-04-05 23:32  
uaxpasha написано:
Не вірю

І справді ще не дивився)
Тільки буду)

11FrYkT 
Модератор відео


З нами з: 20.02.11
Востаннє: 24.09.20
Повідомлень: 7004

2018-04-10 17:56  
igor302 , є ще доріжка від іств, додайте її сюди
Anonymous 







2018-04-11 03:04  
Додав доріжку від ІСТV

brissenden 
Новенький


З нами з: 28.01.18
Востаннє: 11.11.19
Повідомлень: 3

2018-07-18 10:53  
Спочатку знайшов тут "Подвійну рокіровку", тепер великий "Scarface".. це неперевершений ресурс! Дякую авторам!
omm 
Відео Гуртом - фільмокрай
Відео Гуртом - фільмокрай


З нами з: 12.06.12
Востаннє: 24.09.20
Повідомлень: 2422

2019-04-10 20:29  
Сильний фільм. Атмосфера, музика, неперевершений Аль Пачіно, прекрасна Мішель Пфайффер. 8,5 з 10

Дякую за реліз. Хороша якість, приємний розмір.
Дивився з доріжкою ТРК Україна - непоганий підбір голосів. Кілька разів пропадав звук на пару секунд

Ваш часовий пояс: GMT + 2 Години

Нова тема   Відповісти