Сек'юриті (Охоронець) / Security (2017) mini 1080p H.265 Ukr/Eng

Нові коментарі

Нова тема   Відповісти
Автор Повідомлення
Anonymous 







2018-04-03 01:17  
Сек'юриті (Охоронець) / Security (2017) mini 1080p H.265 Ukr/Eng

Сек'юриті (Охоронець) / Security (2017) mini 1080p H.265 Ukr/Eng

Жанр: бойовик
Країна: США



Кінокомпанія: Nu Boyana Film Studios, Nu-Image Films
Режисер: Ален Дерошер
Актори: Антоніо Бандерас, Бен Кінгслі, Ліам МакІнтайр, Габріелла Райт, Чед Ліндберг, Кунг Ле, Яна Марінова, Марк Сміт, Башар Рахаль, Дзіро Ван

Сюжет:
Тікаючи від свого минулого, Едді хоче знайти спокійну роботу, де ніхто не завадить йому насолоджуватись тишею та самотністю. Він влаштовується в нічну охорону супермаркету. Однак події першої ж робочої зміни приносять несподіваний результат – в охоронця просить допомоги дівчинка, яку хочуть вбити як свідка злочину.


Тривалість: 01:31:52
Якість:
Відео:
кодек: H.265 (HEVC)
розмір кадру: 1920 х 806
бітрейт: 1 170 кб/с
бітова глибина: 10 біт
Увага! Перед завантаженням переконайтесь, що ваш пристрій відтворення (та/або ПЗ) підтримують H.265 (HEVC) та 10 біт

Аудіо # 1:
мова: українська
переклад: професійний дубльований
кодек: 2.0
бітрейт: 192 кб/с

Аудіо # 2:
мова: англійська
переклад: оригінал
кодек: 5.1
бітрейт: 448 кб/с
Info
General
Unique ID : 237897634134427942759306286137918812215 (0xB2F96AF036282BE276C5A8969782F037)
Complete name : E:\video\Security (2017) 1080p H.265 [UKR_ENG] [Hurtom].
Format :
Format version : Version 4 / Version 2
File size : 1.16 GiB
Duration : 1 h 31 min
Overall bit rate : 1 812 kb/s
Encoded date : UTC 2018-04-02 22:10:42
Writing application : v22.0.0 ('At The End Of The World') 64-bit
Writing library : libebml v1.3.5 + v1.4.8

Video
ID : 1
Format : HEVC
Format/Info : High Efficiency Video Coding
Format profile : Main [email protected]@Main
Codec ID : V_MPEGH/ISO/HEVC
Duration : 1 h 31 min
Bit rate : 1 170 kb/s
Width : 1 920 pixels
Height : 806 pixels
Display aspect ratio : 2.40:1
Frame rate mode : Constant
Frame rate : 23.976 (24000/1001) FPS
Color space : YUV
Chroma subsampling : 4:2:0
Bit depth : 10 bits
Bits/(Pixel*Frame) : 0.032
Stream size : 769 MiB (65%)
Writing library : x265 2.7+14-d7c26df32fae:[Windows][MSVC 1900][64 bit] 10bit
Encoding settings : cpuid=1173503 / frame-threads=4 / numa-pools=16 / wpp / no-pmode / no-pme / no-psnr / no-ssim / log-level=2 / input-csp=1 / input-res=1920x806 / interlace=0 / total-frames=132173 / level-idc=0 / high-tier=1 / uhd-bd=0 / ref=4 / no-allow-non-conformance / no-repeat-headers / annexb / no-aud / no-hrd / info / hash=0 / no-temporal-layers / open-gop / min-keyint=23 / keyint=250 / gop-lookahead=0 / bframes=8 / b-adapt=2 / b-pyramid / bframe-bias=0 / rc-lookahead=50 / lookahead-slices=4 / scenecut=40 / radl=0 / no-intra-refresh / ctu=64 / min-cu-size=8 / no-rect / no-amp / max-tu-size=32 / tu-inter-depth=1 / tu-intra-depth=1 / limit-tu=0 / rdoq-level=2 / dynamic-rd=0.00 / no-ssim-rd / signhide / no-tskip / nr-intra=0 / nr-inter=0 / no-constrained-intra / no-strong-intra-smoothing / max-merge=3 / limit-refs=3 / limit-modes / me=3 / subme=3 / merange=57 / temporal-mvp / weightp / no-weightb / no-analyze-src-pics / deblock=-1:-1 / no-sao / no-sao-non-deblock / rd=4 / no-early-skip / no-rskip / no-fast-intra / no-tskip-fast / no-cu-lossless / b-intra / no-splitrd-skip / rdpenalty=0 / psy-rd=1.00 / psy-rdoq=2.50 / no-rd-refine / no-lossless / cbqpoffs=0 / crqpoffs=0 / rc=crf / crf=22.0 / qcomp=0.60 / qpstep=4 / stats-write=0 / stats-read=0 / ipratio=1.40 / pbratio=1.30 / aq-mode=3 / aq-strength=0.60 / cutree / zone-count=0 / no-strict-cbr / qg-size=32 / no-rc-grain / qpmax=69 / qpmin=0 / no-const-vbv / sar=0 / overscan=0 / videoformat=5 / range=0 / colorprim=2 / transfer=2 / colormatrix=2 / chromaloc=0 / display-window=0 / max-cll=0,0 / min-luma=0 / max-luma=1023 / log2-max-poc-lsb=8 / vui-timing-info / vui-hrd-info / slices=1 / no-opt-qp-pps / no-opt-ref-list-length-pps / no-multi-pass-opt-rps / scenecut-bias=0.05 / no-opt-cu-delta-qp / no-aq-motion / no-hdr / no-hdr-opt / no-dhdr10-opt / no-idr-recovery-sei / analysis-reuse-level=5 / scale-factor=0 / refine-intra=0 / refine-inter=0 / refine-mv=0 / no-limit-sao / ctu-info=0 / no-lowpass-dct / refine-mv-type=0 / copy-pic=1 / max-ausize-factor=1.0 / no-dynamic-refine
Language : English
Default : Yes
Forced : No

Audio #1
ID : 2
Format : AC-3
Format/Info : Audio Coding 3
Codec ID : A_AC3
Duration : 1 h 31 min
Bit rate mode : Constant
Bit rate : 192 kb/s
Channel(s) : 2 channels
Channel positions : Front: L R
Sampling rate : 48.0 kHz
Frame rate : 31.250 FPS (1536 SPF)
Bit depth : 16 bits
Compression mode : Lossy
Delay relative to video : 10 s 100 ms
Stream size : 126 MiB (11%)
Language : Ukrainian
Service kind : Complete Main
Default : No
Forced : No

Audio #2
ID : 3
Format : AC-3
Format/Info : Audio Coding 3
Codec ID : A_AC3
Duration : 1 h 31 min
Bit rate mode : Constant
Bit rate : 448 kb/s
Channel(s) : 6 channels
Channel positions : Front: L C R, Side: L R, LFE
Sampling rate : 48.0 kHz
Frame rate : 31.250 FPS (1536 SPF)
Bit depth : 16 bits
Compression mode : Lossy
Stream size : 294 MiB (25%)
Language : English
Service kind : Complete Main
Default : No
Forced : No

Menu
00:00:00.000 : en:Chapter 01
00:17:03.105 : en:Chapter 02
00:29:17.088 : en:Chapter 03
00:40:00.189 : en:Chapter 04
00:53:50.101 : en:Chapter 05
01:06:05.252 : en:Chapter 06
01:18:38.338 : en:Chapter 07
01:27:50.848 : en:Chapter 08
Скріншоти



Джерело:
Особиста оцінка: 0 - не дивився


 Трекер:    Зареєстрований   

Завантажити / скачати фільм українською



відео для новачків



 Зареєстрований:   2018-04-03 01:17
 Розмір:   1.16 GB 
 Оцінка фільму:   5.2/10 (Голосів: 5)
   
Інші релізи
Infoserfer 
Свій


З нами з: 31.10.09
Востаннє: 17.09.20
Повідомлень: 139

2020-06-17 13:32  
Напружений бойовичок. Наче "Сам удома" на стероїдах, де замість кмітливого хлопчиська у нічному гіпермаркеті справжнім бандюгам-головорізам протистоїть по-армійському прокачаний Бандерас. 7/10
Ваш часовий пояс: GMT + 2 Години

Нова тема   Відповісти