Потрібно викачати ріп з chdbits.co

Нові коментарі

Нова тема   Відповісти
Автор Повідомлення
NeetScrool 
Відео Гуртом - фільмокрай
Відео Гуртом - фільмокрай


З нами з: 10.01.13
Востаннє: 15.12.18
Повідомлень: 2867

2018-04-01 22:29  
Вітаю. шукав фільм Tae Guk Gi: The Brotherhood of War (2004) у максимальній якості та знайшов згадку про такий собі файл: Taegukgi.hwinalrimyeo.2004.BluRay.1080p..-CHD

Пошук по назві ріпа в і-неті не дав. Хтось може викачати ріп з chdbits.co та перезалити на fex.ua?

Дякую.
Electroz 
Відео Гуртом - підтримка та поширення
Відео Гуртом - підтримка та поширення


З нами з: 18.09.14
Востаннє: 16.12.18
Повідомлень: 3182

2018-04-01 22:53  
NeetScrool написано:
у максимальній якості

Що не так з блюром від хдклабу?

Додано через 1 хвилину 9 секунд:

на кінозалі
krigg070 
Відео Гуртом - фільмокрай
Відео Гуртом - фільмокрай


З нами з: 29.10.14
Востаннє: 16.12.18
Повідомлень: 1421

2018-04-01 23:10  
NeetScrool
Є таке:
Taegukgi hwinalrimyeo 2004 1080p BluRay -EbP
General
Unique ID : 241222445158116972770759667707142999470 (0xB579C0C727265280B9B377995DE00DAE)
Format :
Format version : Version 2
File size : 14.0 GiB
Duration : 2h 28mn
Overall bit rate : 13.5 Mbps
Encoded date : UTC 2010-01-01 06:22:14
Writing application : v3.0.0 ('Hang up your Hang-Ups') built on Dec 12 2009 15:20:35
Writing library : libebml v0.7.9 + v0.8.1

Video
ID : 1
Format : AVC
Format/Info : Advanced Video Codec
Format profile : [email protected]
Format settings, CABAC : Yes
Format settings, ReFrames : 5 frames
Codec ID : V_MPEG4/ISO/AVC
Duration : 2h 28mn
Bit rate : 12.0 Mbps
Width : 1 892 pixels
Height : 816 pixels
Display aspect ratio : 2.35:1
Frame rate mode : Constant
Frame rate : 23.976 fps
Color space : YUV
Chroma subsampling : 4:2:0
Bit depth : 8 bits
Scan type : Progressive
Bits/(Pixel*Frame) : 0.324
Stream size : 12.1 GiB (87%)
Title : Taegukgi hwinalrimyeo (2004)
Writing library : core 80 r1376M 3feaec2
Encoding settings : cabac=1 / ref=5 / deblock=1:-3:-3 / analyse=0x3:0x113 / me=umh / subme=10 / psy=1 / psy_rd=0.9:0.1 / mixed_ref=1 / me_range=48 / chroma_me=1 / trellis=2 / 8x8dct=1 / cqm=0 / deadzone=21,11 / fast_pskip=0 / chroma_qp_offset=-3 / threads=12 / sliced_threads=0 / nr=0 / decimate=1 / mbaff=0 / constrained_intra=0 / bframes=6 / b_pyramid=2 / b_adapt=2 / b_bias=0 / direct=3 / wpredb=1 / wpredp=2 / keyint=250 / keyint_min=25 / scenecut=40 / rc=2pass / mbtree=0 / bitrate=12000 / ratetol=1.0 / qcomp=0.60 / qpmin=10 / qpmax=51 / qpstep=4 / cplxblur=20.0 / qblur=0.5 / ip_ratio=1.40 / pb_ratio=1.30 / aq=1:0.60
Language : Korean
Default : No
Forced : No

Audio
ID : 2
Format :
Format/Info : Digital Theater Systems
Mode : 16
Format settings, Endianness : Big
Codec ID : A_DTS
Duration : 2h 28mn
Bit rate mode : Constant
Bit rate : 1 509 Kbps
Channel(s) : 6 channels
Channel positions : Front: L C R, Side: L R, LFE
Sampling rate : 48.0 KHz
Bit depth : 24 bits
Compression mode : Lossy
Stream size : 1.56 GiB (11%)
Title : core 5.1 @ 1.5 Mbps
Language : Korean
Default : Yes
Forced : No

Text #1
ID : 3
Format : UTF-8
Codec ID : S_TEXT/UTF8
Codec ID/Info : UTF-8 Plain Text
Language : Vietnamese
Default : Yes
Forced : No

Text #2
ID : 4
Format : UTF-8
Codec ID : S_TEXT/UTF8
Codec ID/Info : UTF-8 Plain Text
Language : English
Default : No
Forced : No

Text #3
ID : 5
Format : UTF-8
Codec ID : S_TEXT/UTF8
Codec ID/Info : UTF-8 Plain Text
Language : Czech
Default : No
Forced : No

Text #4
ID : 6
Format : UTF-8
Codec ID : S_TEXT/UTF8
Codec ID/Info : UTF-8 Plain Text
Language : Dutch
Default : No
Forced : No

Text #5
ID : 7
Format : UTF-8
Codec ID : S_TEXT/UTF8
Codec ID/Info : UTF-8 Plain Text
Language : French
Default : No
Forced : No

Text #6
ID : 8
Format : UTF-8
Codec ID : S_TEXT/UTF8
Codec ID/Info : UTF-8 Plain Text
Language : Hungarian
Default : No
Forced : No

Text #7
ID : 9
Format : UTF-8
Codec ID : S_TEXT/UTF8
Codec ID/Info : UTF-8 Plain Text
Language : Norwegian
Default : No
Forced : No

Text #8
ID : 10
Format : UTF-8
Codec ID : S_TEXT/UTF8
Codec ID/Info : UTF-8 Plain Text
Language : Polish
Default : No
Forced : No

Text #9
ID : 11
Format : UTF-8
Codec ID : S_TEXT/UTF8
Codec ID/Info : UTF-8 Plain Text
Language : Portuguese
Default : No
Forced : No

Text #10
ID : 12
Format : UTF-8
Codec ID : S_TEXT/UTF8
Codec ID/Info : UTF-8 Plain Text
Language : Romanian
Default : No
Forced : No

Text #11
ID : 13
Format : UTF-8
Codec ID : S_TEXT/UTF8
Codec ID/Info : UTF-8 Plain Text
Language : Slovenian
Default : No
Forced : No

Text #12
ID : 14
Format : UTF-8
Codec ID : S_TEXT/UTF8
Codec ID/Info : UTF-8 Plain Text
Language : Spanish
Default : No
Forced : No

Text #13
ID : 15
Format : UTF-8
Codec ID : S_TEXT/UTF8
Codec ID/Info : UTF-8 Plain Text
Language : Swedish
Default : No
Forced : No

Menu
00:00:00.000 : :00:00:00.000
00:06:43.945 : :00:06:43.945
00:11:37.572 : :00:11:37.572
00:14:47.720 : :00:14:47.720
00:18:23.686 : :00:18:23.686
00:26:09.526 : :00:26:09.526
00:32:11.346 : :00:32:11.346
00:40:24.255 : :00:40:24.255
00:46:03.636 : :00:46:03.636
00:55:14.728 : :00:55:14.728
00:58:41.059 : :00:58:41.059
01:03:17.836 : :01:03:17.836
01:08:59.802 : :01:08:59.802
01:15:33.154 : :01:15:33.154
01:19:51.203 : :01:19:51.203
01:23:15.949 : :01:23:15.949
01:29:12.055 : :01:29:12.055
01:38:39.956 : :01:38:39.956
01:42:15.880 : :01:42:15.880
01:56:13.383 : :01:56:13.383
02:02:15.203 : :02:02:15.203
02:09:12.536 : :02:09:12.536
02:21:07.918 : :02:21:07.918
02:24:44.134 : :02:24:44.134
Source VS EbP


Додано через 2 хвилини 56 секунд:

Taegukgi.hwinalrimyeo.2004.BluRay.1080p..-CHD
Пробуй ще тут:
https://btdb.to/q/Taegukgi.hwinalrimyeo.2004.BluRay.1080p..-CHD/
NeetScrool 
Відео Гуртом - фільмокрай
Відео Гуртом - фільмокрай


З нами з: 10.01.13
Востаннє: 15.12.18
Повідомлень: 2867

2018-04-02 07:04  
Electroz написано:
на кінозалі

Не знав про кінозал. Знайшов. Качаю.

Усім дякую.
Ваш часовий пояс: GMT + 2 Години

Нова тема   Відповісти