З мене досить / З мене годі / Падіння / Falling Down (1993) Remux 1080p 3xUkr/Eng | Sub Eng

Нові коментарі

Нова тема   Відповісти
Автор Повідомлення
IronBee 
Поважний учасник


З нами з: 08.02.10
Востаннє: 30.09.20
Повідомлень: 231

2018-04-01 13:00  
З мене досить / З мене годі / Падіння / Falling Down (1993) Remux 1080p 3xUkr/Eng | Sub Eng

З мене досить / З мене годі / Падіння / Falling Down (1993) Remux 1080p 3xUkr/Eng | Sub Eng


Жанр: драма, трилер
Країна: Франція, США, Великобританія



Кінокомпанія: Alcor Films, Canal+, Regency Enterprises
Режисер: Джоель Шумахер
Актори: Майкл Даґлас, Роберт Дювалл, Барбара Герші, Рейчел Тікотін, Т'юздей Велд, Фредерік Форрест, Лоіс Сміт та інші

Сюжет:
Невдачі переслідують Вільяма все життя. Особливо цього спекотного літа. На роботі його відправили у безстрокову відпустку. Рішенням суду йому заборонено зустрічатися з донькою. Розлютившись на весь світ, Вільям вирішує помститись. Руйнуючи все на своєму шляху, він пробивається крізь спекотне місто на день народження до своєї доньки. Люди сприймають його як маніяка, і лише досвідчений детектив Прендерґаст знає в чому причина агресії Вільяма...


Тривалість: 01:52:36
Якість: Remux
Відео:
кодек: VC-1
розмір кадру: 1920 х 1080
бітрейт: 20.1 Mб/с

Аудіо # 1:
мова: українська | запис з Інтера
переклад: багатоголосий закадровий
кодек: 2.0
бітрейт: 192 кб/с

Аудіо # 2:
мова: українська | запис з Кіно
переклад: двоголосий закадровий
кодек: 2.0
бітрейт: 192 кб/с

Аудіо # 3:
мова: українська | запис з ICTV
переклад: двоголосий закадровий
кодек: 2.0
бітрейт: 192 кб/с

Аудіо # 4:
мова: англійська
переклад: оригінал
кодек: TrueHD 2.0
бітрейт: 659 кб/с

Аудіо # 5:
мова: англійська
переклад: коментарі Майкла Даґласа та Джоеля Шумахера
кодек: 2.0
бітрейт: 192 кб/с

Субтитри:
мова: англійська
тип: програмні (м'які)
формат: *.srt
Info
General
Unique ID : 266622170468122840359983761510520371852 (0xC8958FEBF5A79DD86745FC254680BA8C)
Complete name : D:\Films\Falling Down (1993) Remux 1080p [3xUkr, Eng Sub Eng] [Hurtom].
Format :
Format version : Version 4 / Version 2
File size : 17.0 GiB
Duration : 1 h 52 min
Overall bit rate mode : Variable
Overall bit rate : 21.6 Mb/s
Encoded date : UTC 2018-04-01 09:17:43
Writing application : v21.0.0 ('Tardigrades Will Inherit The Earth') 64-bit
Writing library : libebml v1.3.5 + v1.4.8

Video
ID : 1
Format : VC-1
Format profile : [email protected]
Codec ID : V_MS/VFW/FOURCC / WVC1
Codec ID/Hint : Microsoft
Duration : 1 h 52 min
Bit rate : 20.1 Mb/s
Width : 1 920 pixels
Height : 1 080 pixels
Display aspect ratio : 16:9
Frame rate mode : Constant
Frame rate : 23.976 (24000/1001) FPS
Color space : YUV
Chroma subsampling : 4:2:0
Bit depth : 8 bits
Scan type : Progressive
Compression mode : Lossy
Bits/(Pixel*Frame) : 0.404
Stream size : 15.8 GiB (93%)
Language : English
Default : Yes
Forced : No

Audio #1
ID : 2
Format : AC-3
Format/Info : Audio Coding 3
Codec ID : A_AC3
Duration : 1 h 52 min
Bit rate mode : Constant
Bit rate : 192 kb/s
Channel(s) : 2 channels
Channel positions : Front: L R
Sampling rate : 48.0 kHz
Frame rate : 31.250 FPS (1536 SPF)
Bit depth : 16 bits
Compression mode : Lossy
Stream size : 155 MiB (1%)
Title : багатоголосий закадровий 2.0 192 кб/с ІНТЕР
Language : Ukrainian
Service kind : Complete Main
Default : Yes
Forced : No

Audio #2
ID : 3
Format : AC-3
Format/Info : Audio Coding 3
Codec ID : A_AC3
Duration : 1 h 52 min
Bit rate mode : Constant
Bit rate : 192 kb/s
Channel(s) : 2 channels
Channel positions : Front: L R
Sampling rate : 48.0 kHz
Frame rate : 31.250 FPS (1536 SPF)
Bit depth : 16 bits
Compression mode : Lossy
Stream size : 155 MiB (1%)
Title : двоголосий закадровий 2.0 192 кб/с Кіно
Language : Ukrainian
Service kind : Complete Main
Default : No
Forced : No

Audio #3
ID : 4
Format : AC-3
Format/Info : Audio Coding 3
Codec ID : A_AC3
Duration : 1 h 52 min
Bit rate mode : Constant
Bit rate : 192 kb/s
Channel(s) : 2 channels
Channel positions : Front: L R
Sampling rate : 48.0 kHz
Frame rate : 31.250 FPS (1536 SPF)
Bit depth : 16 bits
Compression mode : Lossy
Stream size : 155 MiB (1%)
Title : двоголосий закадровий 2.0 192 кб/с ICTV
Language : Ukrainian
Service kind : Complete Main
Default : No
Forced : No

Audio #4
ID : 5
Format : TrueHD
Codec ID : A_TRUEHD
Duration : 1 h 52 min
Bit rate mode : Variable
Bit rate : 659 kb/s
Maximum bit rate : 1 287 kb/s
Channel(s) : 2 channels
Channel positions : Front: C
Sampling rate : 48.0 kHz
Frame rate : 1 200.000 FPS (40 SPF)
Compression mode : Lossless
Stream size : 531 MiB (3%)
Title : TrueHD 2.0 659 kbps Lossless
Language : English
Default : No
Forced : No

Audio #5
ID : 6
Format : AC-3
Format/Info : Audio Coding 3
Codec ID : A_AC3
Duration : 1 h 52 min
Bit rate mode : Constant
Bit rate : 192 kb/s
Channel(s) : 2 channels
Channel positions : Front: L R
Sampling rate : 48.0 kHz
Frame rate : 31.250 FPS (1536 SPF)
Bit depth : 16 bits
Compression mode : Lossy
Stream size : 155 MiB (1%)
Title : Commentary by Joel Schumacher (Director) and Michael Douglas (Actor in Leading Role) 2.0 192 kbps
Language : English
Service kind : Complete Main
Default : No
Forced : No

Text
ID : 7
Format : UTF-8
Codec ID : S_TEXT/UTF8
Codec ID/Info : UTF-8 Plain Text
Duration : 1 h 47 min
Bit rate : 59 b/s
Count of elements : 1463
Stream size : 46.5 KiB (0%)
Language : English
Default : No
Forced : No
Скріншоти




• За фільмографії акторів подяка Віктору та Neo777.
• За доріжку №2 подяка Romario_O.
• Запис сирого звуку для доріжки №1, 3, їх синхронізація.
• Через відсутність перекладу у двох місцях у доріжці від ICTV наприкінці є вставка з доріжки від Інтера.

Джерело: &
Особиста оцінка: 10 - без зайвих вагань рекомендую всім!


Золотий реліз (завантажене не впливає на рейтинг)
 Трекер:    Зареєстрований   

Завантажити / скачати фільм українською



відео для новачків



 Зареєстрований:   2018-04-01 13:00
 Розмір:   16.98 GB 
 Оцінка фільму:   10/10 (Голосів: 19)
   
Lyolic 
Попереджень: 1
Попереджень: 1 


З нами з: 04.08.09
Востаннє: 01.10.20
Повідомлень: 550

2018-04-01 16:09  
О, кльовий фільм! Ще в дитинстві дивився, треба передивитись Happy

PS https://uk.wikipedia.org/wiki/%D0%92%D0%B5%D0%BB%D0%B8%D0%BA%D0%B0_%D0%91%D1%80%D0%B8%D1%82%D0%B0%D0%BD%D1%96%D1%8F

11994455 
Попереджень: 2
Попереджень: 2 


З нами з: 07.04.14
Востаннє: 30.09.20
Повідомлень: 633

2018-06-27 15:25  
кодек: VC-1 - може це HDDVDRemux
igor911 
Модератор відео


З нами з: 18.01.08
Востаннє: 01.10.20
Повідомлень: 15008

2018-06-27 15:31  
11994455 написано:
кодек: VC-1 - може це HDDVDRemux

ні, це відео з блурея.

11994455 
Попереджень: 2
Попереджень: 2 


З нами з: 07.04.14
Востаннє: 30.09.20
Повідомлень: 633

2018-06-27 21:56  
Не люблю я такі блюрики
Нормальний блюрик це 20-25 ГБ...
А таке просто відреставрована дівідіха якась...

[email protected] 
VIP


З нами з: 25.03.17
Востаннє: 30.09.20
Повідомлень: 552

2019-10-02 23:53  
Майкл Даґлас як завжди на висоті
Ваш часовий пояс: GMT + 2 Години

Нова тема   Відповісти