Мирний воїн / Peaceful Warrior (2006) Remux 1080p Ukr/Eng | Sub Ukr/Eng

Нові коментарі

Нова тема   Відповісти
Автор Повідомлення
IronBee 
Поважний учасник


З нами з: 08.02.10
Востаннє: 23.05.19
Повідомлень: 219

2018-04-01 12:07  
Мирний воїн / Peaceful Warrior (2006) Remux 1080p Ukr/Eng | Sub Ukr/Eng

Мирний воїн / Peaceful Warrior (2006) Remux 1080p Ukr/Eng | Sub Ukr/Eng


Жанр: драма, романтичний, спорт
Країна: Німеччина, США



Кінокомпанія: DEJ Productions, Inferno Distribution, MHF Zweite Academy Film
Режисер: Віктор Сальва
Актори: Скот Мехловіц, Нік Нолті, Емі Смарт, Тім ДеКей, Ештон Голмс, Пол Веслі, В.Дж. Бріт, Аґнес Брукнер, Том Тарантіні, Беатріс Розен, Рей Вайз, Джиммі Бредлі

Сюжет:
Ден Мілмен - талановитий гімнаст коледжу, який мріє про виступ на Олімпійських іграх. У нього є все: нагороди, друзі по команді, швидкі мотоцикли, дівчата і відчайдушні вечірки.
Світ Дена перевертається з ніг на голову, коли він зустрічає загадкового незнайомця на ім'я Сократ, у якого достатньо можливостей, щоб відкрити новий світ сили та розуміння. Після серйозної травми, за допомогою Сократа і ефемерної молодої дівчини на ім'я Джой, Ден розуміє, що йому багато чого ще доведеться навчитися...


Тривалість: 02:00:44
Якість: Remux
Відео:
кодек:
розмір кадру: 1920 х 1080
бітрейт: 19,9 Mб/с

Аудіо # 1:
мова: українська
переклад: багатоголосий закадровий
кодек: 2.0
бітрейт: 192 кб/с

Аудіо # 2:
мова: англійська
переклад: оригінал
кодек: 5.1
бітрейт: 448 кб/с

Субтитри # 1:
мова: українська
тип: програмні (м'які)
формат: *.srt

Субтитри # 2:
мова: англійська
тип: програмні (м'які)
формат: *.srt
Info
General
Unique ID : 56263420250446375915055430029829269423 (0x2A53F0CA12D4A7AD084B66D9FAA8E7AF)
Complete name : D:\Films\Мирний воїн Peaceful Warrior (2006) Remux 1080p UkrEng Sub UkrEng[Hurtom].
Format :
Format version : Version 4 / Version 2
File size : 17.3 GiB
Duration : 2 h 1 min
Overall bit rate mode : Variable
Overall bit rate : 20.4 Mb/s
Movie name : Peaceful Warrior
Encoded date : UTC 2018-03-29 18:56:03
Writing application : v21.0.0 ('Tardigrades Will Inherit The Earth') 64-bit
Writing library : libebml v1.3.5 + v1.4.8

Video
ID : 1
Format : AVC
Format/Info : Advanced Video Codec
Format profile : [email protected]
Format settings : CABAC / 4 Ref Frames
Format settings, CABAC : Yes
Format settings, ReFrames : 4 frames
Codec ID : V_MPEG4/ISO/AVC
Duration : 2 h 0 min
Bit rate mode : Variable
Bit rate : 19.9 Mb/s
Maximum bit rate : 30.0 Mb/s
Width : 1 920 pixels
Height : 1 080 pixels
Display aspect ratio : 16:9
Frame rate mode : Constant
Frame rate : 23.976 (24000/1001) FPS
Standard : NTSC
Color space : YUV
Chroma subsampling : 4:2:0
Bit depth : 8 bits
Scan type : Progressive
Bits/(Pixel*Frame) : 0.400
Stream size : 16.8 GiB (97%)
Title : Peaceful Warrior
Language : English
Default : Yes
Forced : No
Color range : Limited
Color primaries : BT.709
Transfer characteristics : BT.709
Matrix coefficients : BT.709

Audio #1
ID : 2
Format : AC-3
Format/Info : Audio Coding 3
Codec ID : A_AC3
Duration : 2 h 0 min
Bit rate mode : Constant
Bit rate : 192 kb/s
Channel(s) : 2 channels
Channel positions : Front: L R
Sampling rate : 48.0 kHz
Frame rate : 31.250 FPS (1536 SPF)
Bit depth : 16 bits
Compression mode : Lossy
Stream size : 166 MiB (1%)
Title : багатоголосий закадровий 2.0 192 кб/с K1
Language : Ukrainian
Service kind : Complete Main
Default : Yes
Forced : No

Audio #2
ID : 3
Format : AC-3
Format/Info : Audio Coding 3
Codec ID : A_AC3
Duration : 2 h 1 min
Bit rate mode : Constant
Bit rate : 448 kb/s
Channel(s) : 6 channels
Channel positions : Front: L C R, Side: L R, LFE
Sampling rate : 48.0 kHz
Frame rate : 31.250 FPS (1536 SPF)
Bit depth : 16 bits
Compression mode : Lossy
Stream size : 388 MiB (2%)
Language : English
Service kind : Complete Main
Default : No
Forced : No

Text #1
ID : 4
Format : UTF-8
Codec ID : S_TEXT/UTF8
Codec ID/Info : UTF-8 Plain Text
Duration : 1 h 53 min
Bit rate : 65 b/s
Count of elements : 819
Stream size : 54.6 KiB (0%)
Title : molfar
Language : Ukrainian
Default : Yes
Forced : No

Text #2
ID : 5
Format : UTF-8
Codec ID : S_TEXT/UTF8
Codec ID/Info : UTF-8 Plain Text
Duration : 1 h 49 min
Bit rate : 42 b/s
Count of elements : 1046
Stream size : 33.9 KiB (0%)
Language : English
Default : No
Forced : No
Скріншоти





Подяки:
Neytreenor за запис з ТБ,
molfar за укр. субтитри,
Тирік за укр. постер.

Джерело: &
Особиста оцінка: 10 - без зайвих вагань рекомендую всім!


Золотий реліз (завантажене не впливає на рейтинг)
 Трекер:    Зареєстрований   

Завантажити / скачати фільм українською



відео для новачків



 Зареєстрований:   2018-04-01 12:07
 Розмір:   17.3 GB 
 Оцінка фільму:   10/10 (Голосів: 7)
   
Інші релізи
HELLOHAOS 
Свій


З нами з: 13.02.09
Востаннє: 22.05.19
Повідомлень: 64

2018-04-01 19:40  
Не забувайте що фільм базований по дуже крутій книжці Happy
dilnix 
Поважний учасник


З нами з: 22.07.12
Востаннє: 14.05.19
Повідомлень: 161

2018-07-20 14:26  
Будь ласка, зробіть хтось реліз Ріп 720р, або хоча б 1080р, але теж Ріп, з бітрейтом до 10 мбіт... прямо з цього Ремукса.
Заздалегідь дякую!

igor911 
Модератор відео


З нами з: 18.01.08
Востаннє: 23.05.19
Повідомлень: 12534

2018-07-20 21:29  
Ваш часовий пояс: GMT + 2 Години

Нова тема   Відповісти