Іван Сила (2013) AVC

Нові коментарі

Нова тема   Відповісти
Автор Повідомлення
Anonymous 







2018-04-01 02:05  
Іван Сила (2013) AVC



Жанр: спорт, сімейний, дитячий, біографічний, пригодницький
Країна: Україна



Кінокомпанія: Insightmedia Producing Center, Sakhaltuev Production, Ukrainian State Film
Режисер: Віктор Андрієнко
Актори: Дмитро Халаджі, Василь Вірастюк, Віктор Андрієнко, Ольга Сумська, Ігор Письменний, В'ячеслав Гіндін, Іванна Сахно

Сюжет:
Прототипом головного героя фільму став цирковий українский силач Іван Фірцак, якого у 1928 році визнали найсильнішою людиною планети. На піку свого успіху, після того як у 1928 році він завершив виступи за кордоном і повернувся на Батьківщину. Фільм відтворює окремі сторінки життя молодого Івана.


Тривалість: 01:26:00
Якість: AVC
Відео:
кодек:
розмір кадру: 1152 х 480
бітрейт: 1724 кб/с

Аудіо:
мова: українська
переклад: оригінал
кодек: 2.0
бітрейт: 192 кб/с
Info та log
Код:
Complete name               : Іван Сила (2013) AVC [Hurtom].
Format                      :
Format version              : Version 4 / Version 2
File size                   : 1.15 GiB
Duration                    : 1 h 26 min
Overall bit rate            : 1 919 kb/s
Movie name                  : Іван Сила (2013) AVC [Hurtom]
Released date               : 2015
Encoded date                : UTC 2018-04-01 09:05:55
Writing application         : v21.0.0 ('Tardigrades Will Inherit The Earth') 64-bit
Writing library             : libebml v1.3.5 + v1.4.8
Cover                       : Yes
Comment                     : http://www.imdb.com/title/tt2401213/
Attachments                 : cover.jpg
ARTIST                      : Дмитро Халаджі, Василь Вірастюк, Віктор Андрієнко, Ольга Сумська, Ігор Письменний, В'ячеслав Гіндін, Іванна Сахно
DIRECTOR                    : Віктор Андрієнко
GENRE                       : спорт, сімейний, дитячий, біографічний, пригодницький
SYNOPSIS                    : Прототипом головного героя фільму став цирковий українский силач Іван Фірцак, якого у 1928 році визнали найсильнішою людиною планети. На піку свого успіху, після того як у 1928 році він завершив виступи за кордоном і повернувся на Батьківщину. Фільм відтворює окремі сторінки життя молодого Івана...
Url                         : https://toloka.to/t88993

Video
ID                          : 1
Format                      : AVC
Format/Info                 : Advanced Video Codec
Format profile              : [email protected]
Format settings             : CABAC / 12 Ref Frames
Format settings, CABAC      : Yes
Format settings, ReFrames   : 12 frames
Codec ID                    : V_MPEG4/ISO/AVC
Duration                    : 1 h 26 min
Bit rate                    : 1 724 kb/s
Width                       : 1 152 pixels
Height                      : 480 pixels
Display aspect ratio        : 2.40:1
Frame rate mode             : Constant
Frame rate                  : 25.000 FPS
Color space                 : YUV
Chroma subsampling          : 4:2:0
Bit depth                   : 8 bits
Scan type                   : Progressive
Bits/(Pixel*Frame)          : 0.125
Stream size                 : 1.04 GiB (90%)
Title                       : Іван Сила (2013) AVC [Hurtom]
Writing library             : core 155 r2901 7d0ff22
Encoding settings           : cabac=1 / ref=12 / deblock=1:-1:-1 / analyse=0x3:0x133 / me=umh / subme=10 / psy=1 / psy_rd=1.00:0.15 / mixed_ref=1 / me_range=32 / chroma_me=1 / trellis=2 / 8x8dct=1 / cqm=0 / deadzone=21,11 / fast_pskip=0 / chroma_qp_offset=-3 / threads=6 / lookahead_threads=1 / sliced_threads=0 / nr=0 / decimate=1 / interlaced=0 / bluray_compat=0 / constrained_intra=0 / bframes=8 / b_pyramid=2 / b_adapt=2 / b_bias=0 / direct=3 / weightb=1 / open_gop=0 / weightp=2 / keyint=250 / keyint_min=25 / scenecut=40 / intra_refresh=0 / rc_lookahead=60 / rc=crf / mbtree=0 / crf=19.5 / qcomp=0.60 / qpmin=0 / qpmax=69 / qpstep=4 / vbv_maxrate=8448 / vbv_bufsize=12288 / crf_max=0.0 / nal_hrd=none / filler=0 / ip_ratio=1.40 / pb_ratio=1.30 / aq=3:0.90
Language                    : Ukrainian
Default                     : Yes
Forced                      : No

Audio
ID                          : 2
Format                      :
Format/Info                 : Advanced Audio Codec
Format profile              : LC
Codec ID                    : A_AAC-2
Duration                    : 1 h 26 min
Bit rate                    : 192 kb/s
Channel(s)                  : 2 channels
Channel positions           : Front: L R
Sampling rate               : 48.0 kHz
Frame rate                  : 46.875 FPS (1024 SPF)
Compression mode            : Lossy
Stream size                 : 118 MiB (10%)
Title                       : Original, 2.0 192 Kbps
Language                    : Ukrainian
Default                     : Yes
Forced                      : No

Код:
frame I:834   Avg QP:15.62  size: 50909
frame P:30612 Avg QP:17.52  size: 18443
frame B:97577 Avg QP:20.42  size:  5177
consecutive B-frames:  1.9%  2.1% 10.8% 35.2% 24.2% 22.4%  1.8%  1.1%  0.5%
Скріншоти
трішечки згодом
Джерело:
Подяка автору вихідного реліза


Золотий реліз (завантажене не впливає на рейтинг)
 Трекер:    Зареєстрований   

Завантажити / скачати український фільм



відео для новачків



 Зареєстрований:   2018-04-01 11:11
 Розмір:   1.15 GB 
 Оцінка фільму:   9.7/10 (Голосів: 52)
   
Dmitriy-2017 
Новенький


З нами з: 25.09.17
Востаннє: 05.06.18
Повідомлень: 23

2018-04-09 08:49  
Anonymous
про скріни забули

Slavko_Lom 
Частий відвідувач


З нами з: 11.09.19
Востаннє: 06.03.21
Повідомлень: 29

2020-03-24 18:35  
Іван Фірцак дійсно легендарна людина, але у фільмі ніби не вистачає подробиць. Все розповідається швидко і деякі моменти не повністю показані глядачу. Особиста оцінка 7 з 10
wolodn 
Новенький


З нами з: 20.12.18
Востаннє: 07.03.21
Повідомлень: 3

2020-10-04 16:02  
Скачати фільм неможливо, роздачі не має, а от на російських сайтах фільм є і закачка швидка ЯК ТАК!!!( для чого такий сайт).
Anonymous 







2020-10-04 17:31  
wolodn написано:
роздачі не має

wolodn написано:
Віддано: 266 MB
Рейтинг: 0.03
З нами з: 20.12.18

ЯК ТАК? (для чого так не поважати себе?)

1985ad 
Поважний учасник


З нами з: 27.04.17
Востаннє: 05.03.21
Повідомлень: 160

2020-11-20 12:13  
В титрах до фільму є перелік акторів, що дублюють ролі. Більше десятка, тобто у фільмі взагалі одиниці розмовляють своїм голосом. Хотів дізнатися, хто ж тут кого дублює, а хто сам говорить, але такої інформації не знайшов.

Також стало цікаво, де зараз виконавець головної ролі - Дмитро Халаджі. На жаль, тепер вже гордість не нашої нації.

А фільм тут дійсно дитячий, а про таку людину хотілося б подивитися щось більш доросле. Сподіваюсь, що колись (не зараз, а коли наші кінематографісти трошки навчаться) про нього знімуть щось монументальне.

TomVovkylaka 
Свій


З нами з: 03.01.10
Востаннє: 07.03.21
Повідомлень: 108

2021-01-10 15:39  
Класне кіно. Із задоволенням подивився і гляну ще
Jake Vorobyshek 
Новенький


З нами з: 11.12.20
Востаннє: 20.02.21
Повідомлень: 2

2021-02-20 22:46  
Добрий, приємний фільм. Дивився років 5 назад, зараз знову перегляну. Релізеру і сідерам подяка!
Ваш часовий пояс: GMT + 2 Години

Нова тема   Відповісти