Іній / Frost (2017)

Нові коментарі

Нова тема   Відповісти
Автор Повідомлення
Anonymous 







2018-03-31 15:11  
Іній / Frost (2017)

Іній / Frost (2017)
Альтернативний постер:



Жанр: драма, роуд-муві
Країна: Україна, Литва, Польща, Франція



Кінокомпанія: ІнсайтМедіа, Тато фільм, Studija Kinema, KinoElektron, Donten & Lacroix Films
Режисер: Шарунас Бартас / Sharunas Bartas
Актори: Мантаc Янчаускас / Mantas Janciauskas, Лія Макнавічюте / Lyja Maknavičiūtė, Анджей Хира / Andrzej Chyra, Ванесса Параді / Vanessa Paradis, Вероніка Розаті / Weronika Rosati, Борис Абрамов та інші

Сюжет:
Рокас та Інґа – молода литовська пара, що зголошується пригнати вантажівку з гуманітарною допомогою до України. Але плани змінюються й вони лишаються наодинці із засніженими просторами Донбасу, шукаючи на союзників, прихисток, і наближаючись до життів, які спіткала війна. Тут вони знайомляться з журналістами, серед яких француженка (Ванесса Параді). Кожен тут шукає своєї правди. Чим ближче до лінії фронту, тим ближчими герої стають одне для одного, адже починають розуміти ціну життя під час війни.
Альтернативний опис 1:
Молодому литовському хлопцю Рокасу одного дня випадає несподівана можливість побувати в Україні та побачити – і зрозуміти – справжню окупацію і війну. Разом із гуманітарним конвоєм він прямує з Литви до України, де доля зводить його із двома військовими журналістами. Реальність виявляється набагато жорстокішою за романтичні уявлення молодого литовця, кидаючи його у вир війни. Тріо буде змушене подолати свої психологічні межі та збудувати міцні відносини. Вони не погоджуються ні з чим, окрім свого бажання бути там, де вони є, кожен з власних причин.

Джерело - українська ФБ-сторінка фільму
Альтернативний опис 2:
Рокаш не планував жодних подорожей зі своєї країни цієї зими. Але його друг попросив на фургоні перевезти деякі речі і продукти з Литви на Схід України, де зараз війна. Метою Рокаша є сіра зона – нейтральна територія між українськими солдатами й сепаратистами ДНР і ЛНР. Хлопець погоджується на цю волонтерську місію, та й ще бере з собою в дуже небезпечне місце дівчину Інгу. Ця довга подорож стане для них справжнім випробуванням. У шляху Інга через сварки зраджує Рокашу першому ліпшому чоловіку. Але це не найгірше, що їх очікувало в дорозі. Адже вони приїхали туди, де відбувається війна.

Джерело - kino-teatr.ua
Тривалість: 01:59:59
Якість:
Відео:
кодек:
розмір кадру: 720 х 384
бітрейт: 1533 кб/с

Аудіо:
мова: литовська, українська, російська, французька
переклад: оригінал
кодек: 2.0
бітрейт: 192 кб/с

Субтитри
мова: українська (на іноземну мову)
тип: вбудовані (жорсткі)
Info
Код:
General
Complete name               : Frost (2017) [Hurtom].avi
Format                      : AVI
Format/Info                 : Audio Video Interleave
File size                   : 1.45 GiB
Duration                    : 1 h 59 min
Overall bit rate            : 1 734 kb/s
Movie name                  : Іній / Frost (2017) [Hurtom]
Writing application         : VirtualDubModUkr 1.5.10.2 (build 2542/release)
Writing library             : VirtualDubMod build 2542/release
Comment                     : https://toloka.to/t88977 31.03.2018

Video
ID                          : 0
Format                      : MPEG-4 Visual
Format profile              : Advanced [email protected]
Format settings             : BVOP1
Format settings, BVOP       : 1
Format settings, QPel       : No
Format settings, GMC        : No warppoints
Format settings, Matrix     : Default (MPEG)
Codec ID                    :
Codec ID/Hint               :
Duration                    : 1 h 59 min
Bit rate                    : 1 533 kb/s
Width                       : 720 pixels
Height                      : 384 pixels
Display aspect ratio        : 1.85:1
Frame rate                  : 24.000 FPS
Color space                 : YUV
Chroma subsampling          : 4:2:0
Bit depth                   : 8 bits
Scan type                   : Progressive
Compression mode            : Lossy
Bits/(Pixel*Frame)          : 0.231
Stream size                 : 1.28 GiB (88%)
Writing library             : 67

Audio
ID                          : 1
Format                      : AC-3
Format/Info                 : Audio Coding 3
Codec ID                    : 2000
Duration                    : 1 h 59 min
Bit rate mode               : Constant
Bit rate                    : 192 kb/s
Channel(s)                  : 2 channels
Channel positions           : Front: L R
Sampling rate               : 48.0 kHz
Frame rate                  : 31.250 FPS (1536 SPF)
Bit depth                   : 16 bits
Compression mode            : Lossy
Stream size                 : 165 MiB (11%)
Alignment                   : Split accross interleaves
Interleave, duration        : 42  ms (1.00 video frame)
Interleave, preload duratio : 500  ms
Service kind                : Complete Main


Джерело:
Подяка автору вихідного реліза


Золотий реліз (завантажене не впливає на рейтинг)
 Трекер:    Зареєстрований   

Завантажити / скачати український фільм



відео для новачків



 Зареєстрований:   2018-03-31 19:07
 Розмір:   1.45 GB 
 Оцінка фільму:   9.2/10 (Голосів: 39)
   
Інші релізи
   Іній / Frost (2017) AVC igor911  4 / 0   1.11 GB   2018-04-01 11:52 
   Іній / Frost (2017) 1080p Electroz  9 / 0   3.52 GB   2018-03-31 13:29 
vigorst 
Новенький


З нами з: 07.07.09
Востаннє: 22.02.21
Повідомлень: 23

2018-04-01 07:54  
"...шукаючи на союзників, прихисток, і наближаючись до життів, які спіткала війна..." !?
qarty1 
VIP


З нами з: 01.11.09
Востаннє: 27.02.21
Повідомлень: 411

2018-10-20 22:15  
нудноватий фільм, гра акторів ніяка, тільки вразили слова солдата про Батьківщину 5/10
chanis 
Свій


З нами з: 21.12.15
Востаннє: 25.02.21
Повідомлень: 76

2018-11-19 22:27  
Сильний фільм.Пронизливий .Особиста оцінка_10\10.
Adamanta 
Новенький


З нами з: 28.12.12
Востаннє: 24.09.20
Повідомлень: 1

2018-11-29 02:00  
Бредятина. Смотрели в кино и умирали от скуки + раздражения.
Anonymous 







2018-11-29 08:43  
Adamanta, зверни увагу - в нас спілкуються виключно українською
https://toloka.to/faq.php написано:
2. Правила та обмеження форуму

Всім без винятку заборонено:
2.1 Спілкуватися іншою мовою, аніж літературною українською

GarryK 
Новенький


З нами з: 28.05.17
Востаннє: 19.01.20
Повідомлень: 10

2019-04-15 19:58  
Десь після 50-55 хвилини події розвиваються значно швидше. Кінцівка трагічна.
lybchyk_ 
Новенький


З нами з: 22.02.19
Востаннє: 30.08.19
Повідомлень: 6

2019-04-18 08:54  
Фільм безумовно вартий уваги. Перша частина дійсно трохи нудна, але таким є задум режисера. Дуже вразили розмови українських солдат які, за словами продюсерів не були акторами, а грали самих себе.
Ваш часовий пояс: GMT + 2 Години

Нова тема   Відповісти