Усі гроші світу / All the Money in the World (2017) Ukr/Eng | Sub Eng

Нові коментарі

Нова тема   Відповісти
Автор Повідомлення
Anonymous 







2018-03-30 10:52  
Усі гроші світу / All the Money in the World (2017) Ukr/Eng | Sub Eng

Усі гроші світу / All the Money in the World (2017) Ukr/Eng | Sub Eng


Жанр: біографічний, детектив, драма, кримінальний, трилер
Країна: США



Кінокомпанія: Imperative Entertainment, Panorama Films, RedRum Films
Режисер: Рідлі Скотт / Ridley Scott
Актори: Мішель Вільямс / Michelle Williams, Крістофер Пламмер / Christopher Plummer, Марк Волберг / Mark Wahlberg, Ромен Дюрі / Romain Duris, Тімоті Гаттон / Timothy Hutton, Чарлі Пламмер / Charlie Plummer, Чарлі Шотвелл / Charlie Shotwell, Ендрю Бакен / Andrew Buchan, Марко Леонарді / Marco Leonardi та інші

Сюжет:
Історія одного з найгучніших скандалів XX століття. У Римі злочинці в масках викрадають онука Жана Пола Гетті — найбагатшої людини світу, відомого своєю маніакальною скупістю. До загального шоку Гетті відмовляється платити викуп, незважаючи на всі благання Гейл, матері дитини, якій ніякі багатства не замінять сина. Час спливає, вимоги викрадачів стають жорсткішими, і єдиною надією на порятунок підлітка стає Флетчер Чейс — співробітник служби безпеки самого Гетті.
Офіційний український трейлер:


Рейтинг MPAA: R - особам до 17 років обов'язкова присутність батьків або дорослого опікуна
Вікова категорія: 16+
Тривалість: 02:12:41
Якість:
Відео:
кодек:
розмір кадру: 720x304
бітрейт: 1874 кб/с

Аудіо # 1:
мова: українська
переклад: професійний дубльований | студія Pie Post Production
кодек: 2.0
бітрейт: 192 кб/с
Інформація про дубляж
Перекладач: Юлія Галета
Режисер дубляжу: Лідія Громовенко
Звукорежисери: Роман Матвєєв та Анна Гаврилюк
Звукорежисер перезапису: Віталій Ящук
Ролі дублювали: Наталя Романько, Андрій Соболєв, Роман Чорний, Євген Пашин, Дмитро Терещук, Матвій Ніколаєв, Арсен Шавлюк, В'ячеслав Дудко, Михайло Кришталь, Дарина Муращенко, Юрій Гребельник, Віктор Данилюк, Вероніка Лук'яненко, Дмитро Гаврилов, Кирило Нікітенко та інші.

Фільм дубльовано компанією Pie Post Production на замовлення "Вольга Україна".
Аудіо # 2:
мова: англійська
переклад: оригінал
кодек: 2.0
бітрейт: 192 кб/с

Субтитри # 1-3:
мова: англійська (повні, SDH, SDH кольорові)
тип: програмні (м'які)
формат: *.srt
Info
Код:
General
Complete name               : All the Money in the World (2017) [Ukr,Eng] [Hurtom].avi
Format                      : AVI
Format/Info                 : Audio Video Interleave
Format profile              : OpenDML
File size                   : 2.13 GiB
Duration                    : 2 h 12 min
Overall bit rate            : 2 297 kb/s
Movie name                  : Усі гроші світу / All the Money in the World (2017) [Ukr,Eng] [Hurtom]
Genre                       : біографічний, детектив, драма, кримінальний, трилер
Writing application         : VirtualDubModUkr 1.5.10.2 (build 2542/release)
Writing library             : VirtualDubMod build 2542/release
Comment                     : https://toloka.to/t88939 30.03.2018

Video
ID                          : 0
Format                      : MPEG-4 Visual
Format profile              : Advanced [email protected]
Format settings             : BVOP1 / Custom Matrix
Format settings, BVOP       : 1
Format settings, QPel       : No
Format settings, GMC        : No warppoints
Format settings, Matrix     : Custom
Codec ID                    :
Codec ID/Hint               :
Duration                    : 2 h 12 min
Bit rate                    : 1 895 kb/s
Width                       : 720 pixels
Height                      : 304 pixels
Display aspect ratio        : 2.35:1
Frame rate                  : 23.976 (24000/1001) FPS
Color space                 : YUV
Chroma subsampling          : 4:2:0
Bit depth                   : 8 bits
Scan type                   : Progressive
Compression mode            : Lossy
Bits/(Pixel*Frame)          : 0.361
Stream size                 : 1.76 GiB (82%)
Writing library             : 73

Audio #1
ID                          : 1
Format                      : AC-3
Format/Info                 : Audio Coding 3
Codec ID                    : 2000
Duration                    : 2 h 12 min
Bit rate mode               : Constant
Bit rate                    : 192 kb/s
Channel(s)                  : 2 channels
Channel positions           : Front: L R
Sampling rate               : 48.0 kHz
Frame rate                  : 31.250 FPS (1536 SPF)
Bit depth                   : 16 bits
Compression mode            : Lossy
Stream size                 : 182 MiB (8%)
Alignment                   : Split accross interleaves
Interleave, duration        : 42  ms (1.00 video frame)
Interleave, preload duratio : 500  ms
Title                       : UKR DUB [Pie Post Production, iTunes]
Service kind                : Complete Main

Audio #2
ID                          : 2
Format                      : AC-3
Format/Info                 : Audio Coding 3
Codec ID                    : 2000
Duration                    : 2 h 12 min
Bit rate mode               : Constant
Bit rate                    : 192 kb/s
Channel(s)                  : 2 channels
Channel positions           : Front: L R
Sampling rate               : 48.0 kHz
Frame rate                  : 31.250 FPS (1536 SPF)
Bit depth                   : 16 bits
Compression mode            : Lossy
Stream size                 : 182 MiB (8%)
Alignment                   : Split accross interleaves
Interleave, duration        : 42  ms (1.00 video frame)
Interleave, preload duratio : 500  ms
Title                       : Eng
Service kind                : Complete Main

Джерело: &
Подяка п. romiv за допомогу у створенні релізу


 Трекер:    Зареєстрований   

Завантажити / скачати фільм українською



відео для новачків



 Зареєстрований:   2018-03-30 11:57
 Розмір:   2.13 GB 
 Оцінка фільму:   9.5/10 (Голосів: 12)
   
Ваш часовий пояс: GMT + 2 Години

Нова тема   Відповісти