Усі гроші світу / All the Money in the World (2017)

Нові коментарі

Нова тема   Відповісти
Автор Повідомлення
Anonymous 







2018-03-30 11:38  
Усі гроші світу / All the Money in the World (2017)

Усі гроші світу / All the Money in the World (2017)


Жанр: біографічний, детектив, драма, кримінальний, трилер
Країна: США



Кінокомпанія: Imperative Entertainment, Panorama Films, RedRum Films
Режисер: Рідлі Скотт / Ridley Scott
Актори: Мішель Вільямс / Michelle Williams, Крістофер Пламмер / Christopher Plummer, Марк Волберг / Mark Wahlberg, Ромен Дюрі / Romain Duris, Тімоті Гаттон / Timothy Hutton, Чарлі Пламмер / Charlie Plummer, Чарлі Шотвелл / Charlie Shotwell, Ендрю Бакен / Andrew Buchan, Марко Леонарді / Marco Leonardi та інші

Сюжет:
Історія одного з найгучніших скандалів XX століття. У Римі злочинці в масках викрадають онука Жана Пола Гетті — найбагатшої людини світу, відомого своєю маніакальною скупістю. До загального шоку Гетті відмовляється платити викуп, незважаючи на всі благання Гейл, матері дитини, якій ніякі багатства не замінять сина. Час спливає, вимоги викрадачів стають жорсткішими, і єдиною надією на порятунок підлітка стає Флетчер Чейс — співробітник служби безпеки самого Гетті.

Фільм створено на основі реальних подій.
Офіційний український трейлер:


Рейтинг MPAA: R - особам до 17 років обов'язкова присутність батьків або дорослого опікуна
Вікова категорія: 16+
Тривалість: 02:12:41
Якість:
Відео:
кодек:
розмір кадру: 720x304
бітрейт: 1372 кб/с

Аудіо:
мова: українська
переклад: професійний дубльований | студія Pie Post Production
кодек: 2.0
бітрейт: 192 кб/с
Інформація про дубляж
Перекладач: Юлія Галета
Режисер дубляжу: Лідія Громовенко
Звукорежисери: Роман Матвєєв та Анна Гаврилюк
Звукорежисер перезапису: Віталій Ящук
Ролі дублювали: Наталя Романько, Андрій Соболєв, Роман Чорний, Євген Пашин, Дмитро Терещук, Матвій Ніколаєв, Арсен Шавлюк, В'ячеслав Дудко, Михайло Кришталь, Дарина Муращенко, Юрій Гребельник, Віктор Данилюк, Вероніка Лук'яненко, Дмитро Гаврилов, Кирило Нікітенко та інші.

Фільм дубльовано компанією Pie Post Production на замовлення "Вольга Україна".
Info
Код:
General
Complete name               : All the Money in the World (2017) [Ukr] [Hurtom].avi
Format                      : AVI
Format/Info                 : Audio Video Interleave
File size                   : 1.46 GiB
Duration                    : 2 h 12 min
Overall bit rate            : 1 574 kb/s
Movie name                  : Усі гроші світу / All the Money in the World (2017) [Ukr] [Hurtom]
Genre                       : біографічний, детектив, драма, кримінальний, трилер
Writing application         : VirtualDubModUkr 1.5.10.2 (build 2542/release)
Writing library             : VirtualDubMod build 2542/release
Comment                     : https://toloka.to/t88937 30.03.2018

Video
ID                          : 0
Format                      : MPEG-4 Visual
Format profile              : Advanced [email protected]
Format settings             : BVOP1 / Custom Matrix
Format settings, BVOP       : 1
Format settings, QPel       : No
Format settings, GMC        : No warppoints
Format settings, Matrix     : Custom
Codec ID                    :
Codec ID/Hint               :
Duration                    : 2 h 12 min
Bit rate                    : 1 372 kb/s
Width                       : 720 pixels
Height                      : 304 pixels
Display aspect ratio        : 2.35:1
Frame rate                  : 23.976 (24000/1001) FPS
Color space                 : YUV
Chroma subsampling          : 4:2:0
Bit depth                   : 8 bits
Scan type                   : Progressive
Compression mode            : Lossy
Bits/(Pixel*Frame)          : 0.262
Stream size                 : 1.27 GiB (87%)
Writing library             : 73

Audio
ID                          : 1
Format                      : AC-3
Format/Info                 : Audio Coding 3
Codec ID                    : 2000
Duration                    : 2 h 12 min
Bit rate mode               : Constant
Bit rate                    : 192 kb/s
Channel(s)                  : 2 channels
Channel positions           : Front: L R
Sampling rate               : 48.0 kHz
Frame rate                  : 31.250 FPS (1536 SPF)
Bit depth                   : 16 bits
Compression mode            : Lossy
Stream size                 : 182 MiB (12%)
Alignment                   : Split accross interleaves
Interleave, duration        : 42  ms (1.00 video frame)
Interleave, preload duratio : 500  ms
Title                       : UKR DUB [Pie Post Production, iTunes]
Service kind                : Complete Main


Джерело: &
Подяка п. romiv за допомогу у створенні релізу.


 Трекер:    Зареєстрований   

Завантажити / скачати фільм українською



відео для новачків



 Зареєстрований:   2018-03-30 12:07
 Розмір:   1.46 GB 
 Оцінка фільму:   9.1/10 (Голосів: 63)
   
toma1408 
Поважний учасник


З нами з: 28.08.10
Востаннє: 21.04.19
Повідомлень: 185

2018-04-01 19:34  
Доволі посередній фільм. 6/10
avast_9111 
Новенький


З нами з: 14.10.17
Востаннє: 24.02.19
Повідомлень: 1

2018-04-03 16:14  
Хороший фільм
jajcebum 
Новенький


З нами з: 08.01.17
Востаннє: 21.03.19
Повідомлень: 17

2018-04-05 15:10  
Зараз підгрібає серіал на цю тему від Дені Бойла, мабуть гляну серіал, Скот останнього часу розчаровує
Zakon_nik 
Новенький


З нами з: 03.03.13
Востаннє: 17.05.18
Повідомлень: 8

2018-04-05 17:04  
Дуже якісний і цікавий фільм, розв'язка якась зкомкана але всеодно мені він сподобався. Раджу до перегляду. Оцінка: 9 з 10.
tadescu 
Частий відвідувач


З нами з: 02.01.15
Востаннє: 21.02.19
Повідомлень: 30

2018-04-10 00:02  
На жаль, на жаль. І це вже вкотре. Мабуть, старість дається взнаки.
antik_2008 
Релізер і модератор відео


З нами з: 20.10.08
Востаннє: 26.04.19
Повідомлень: 1950

2018-04-10 00:24  
7/10
andriy_nv 
VIP


З нами з: 27.06.08
Востаннє: 25.04.19
Повідомлень: 860

2018-05-10 18:23  
цікавий фільм

в багатих свої причуди Happy

хоча дещо зняли не так як було насправді, але як сказано в титрах "деякі сцени персонажі та діалоги вигадані з художньою метою"

qarty1 
Поважний учасник


З нами з: 01.11.09
Востаннє: 26.04.19
Повідомлень: 193

2018-07-22 22:56  
Trust серіал в рази кращий за це лайно Рідлі Скотта.
Ваш часовий пояс: GMT + 2 Години

Нова тема   Відповісти