Гра Моллі / Molly's Game (2017)

Нові коментарі

Нова тема   Відповісти
Автор Повідомлення
Anonymous 







2018-03-29 12:32  
Гра Моллі / Molly's Game (2017)

Гра Моллі / Molly's Game (2017)
Альтернативний постер:



Жанр: біографічний, кримінальний, драма
Країна: Китай, США, Канада



Кінокомпанія: STX Entertainment, Huayi Brothers Pictures, The Mark Gordon Company
Режисер: Аарон Соркін / Aaron Sorkin
Актори: Джессіка Честейн / Jessica Chastain, Ідріс Ельба / Idris Elba, Кевін Костнер / Kevin Costner, Майкл Сера / Michael Cera, Джеремі Стронґ / Jeremy Strong, Кріс О’Дауд / Chris O'Dowd, Брайан Д’Арсі Джеймс / Brian d'Arcy James, Білл Кемп / Bill Camp, Ґрехем Ґрін / Graham Greene, Джастін Кірк / Justin Kirk та інші

Сюжет:
Моллі Блум не дарма отримала прізвисько "Принцеса покера". Їй вдалося створити свою підпільну імперію в Голлівуді. В її дорогому казино грали заможні люди, відомі кіноактори і шейхи. Але де великі гроші, там завжди чекай на неприємності. Принцесу Моллі шукають хлопці з ФБР та серйозні люди, які не люблять жартувати.
Офіційні українські промо та трейлер:

промо # 1:


промо # 2:


трейлер:

Рейтинг MPAA: R - особам до 17 років обов'язкова присутність батьків або дорослого опікуна
Вікова категорія: 16+
Тривалість: 02:20:58
Якість:
Відео:
кодек:
розмір кадру: 720 х 304
бітрейт: 1757 кб/с

Аудіо:
мова: українська
переклад: професійний дубльований | студія Tretyakoff production
кодек: 5.1
бітрейт: 448 кб/с
Info
Код:
General
Complete name               : Mollys Game (2017) [Ukr] [Hurtom].avi
Format                      : AVI
Format/Info                 : Audio Video Interleave
Format profile              : OpenDML
File size                   : 2.18 GiB
Duration                    : 2 h 20 min
Overall bit rate            : 2 215 kb/s
Movie name                  : Гра Моллі / Molly's Game (2017) [Ukr] [Hurtom]
Genre                       : біографічний, кримінальний, драма
Recorded date               : 25.06.2018
Writing application         : VirtualDubModUkr 1.5.10.2 (build 2542/release)
Writing library             : VirtualDubMod build 2542/release
Comment                     : https://toloka.to/t88923

Video
ID                          : 0
Format                      : MPEG-4 Visual
Format profile              : Advanced [email protected]
Format settings             : BVOP1 / Custom Matrix
Format settings, BVOP       : 1
Format settings, QPel       : No
Format settings, GMC        : No warppoints
Format settings, Matrix     : Custom
Codec ID                    :
Codec ID/Hint               :
Duration                    : 2 h 20 min
Bit rate                    : 1 757 kb/s
Width                       : 720 pixels
Height                      : 304 pixels
Display aspect ratio        : 2.35:1
Frame rate                  : 23.976 (24000/1001) FPS
Color space                 : YUV
Chroma subsampling          : 4:2:0
Bit depth                   : 8 bits
Scan type                   : Progressive
Compression mode            : Lossy
Bits/(Pixel*Frame)          : 0.335
Stream size                 : 1.73 GiB (79%)
Writing library             : 73

Audio
ID                          : 1
Format                      : AC-3
Format/Info                 : Audio Coding 3
Codec ID                    : 2000
Duration                    : 2 h 20 min
Bit rate mode               : Constant
Bit rate                    : 448 kb/s
Channel(s)                  : 6 channels
Channel positions           : Front: L C R, Side: L R, LFE
Sampling rate               : 48.0 kHz
Frame rate                  : 31.250 FPS (1536 SPF)
Bit depth                   : 16 bits
Compression mode            : Lossy
Stream size                 : 450 MiB (20%)
Alignment                   : Split accross interleaves
Interleave, duration        : 42  ms (1.00 video frame)
Interleave, preload duratio : 500  ms
Title                       : UKR DUB [Tretyakoff Production, Blu-ray]
Service kind                : Complete Main


Джерело: &
Подяка Electroz'у за синхронізацію доріжки.

02.04.2018 Реліз оновлено до 'у
25.06.2018 Реліз оновлено - замінено відеоряд та звук на якісніші


 Трекер:    Зареєстрований   

Завантажити / скачати фільм українською



відео для новачків



 Зареєстрований:   2018-06-25 18:16
 Розмір:   2.18 GB 
 Оцінка фільму:   9.3/10 (Голосів: 95)
   
Інші релізи
   Гра Моллі / Molly's Game (2017) Remux 1080p Ukr/Eng | sub Eng antik_2008  1 / 0   34.61 GB   2018-08-17 00:14 
   Гра Моллі / Molly's Game (2017) Ukr/Eng antik_2008  16 / 0   2.69 GB   2018-08-16 15:07 
   Гра Моллі / Molly's Game (2017) 720p Ukr/Eng | Sub Eng igor911  11 / 0   7.61 GB   2018-06-25 17:45 
   Гра Моллі / Molly's Game (2017) 1080p Ukr/Eng | Sub Eng Electroz  9 / 0   17.28 GB   2018-06-21 15:18 
   Гра Моллі / Molly's Game (2017) AVC Ukr/Eng | Sub Eng uafilm.tv  13 / 0   2.1 GB   2018-06-19 21:32 
Anonymous 







2018-04-02 01:42  
Реліз оновлено до 'у
frost89 
Новенький


З нами з: 20.02.13
Востаннє: 15.12.18
Повідомлень: 4

2018-04-02 13:29  
Фільм невартує вашого часу мабуть що тільки фанатам фемінізму
tadescu 
Частий відвідувач


З нами з: 02.01.15
Востаннє: 09.12.18
Повідомлень: 28

2018-04-02 20:08  
Чудовий мотивуючий фільмчик.
MichiRyzh 
Новенький


З нами з: 18.03.18
Востаннє: 14.04.18
Повідомлень: 1

2018-04-06 23:06  
frost89 написано:
Фільм невартує вашого часу мабуть що тільки фанатам фемінізму

Це фільм зовсім не про фемінізм. Happy
Дуже сподобався.
Особисто мене дуже зачепила тема збереження репутації. Це те, чтого, на мою думку, дуже бракує деяким підприємцям.

Ванько 
VIP


З нами з: 27.08.09
Востаннє: 15.12.18
Повідомлень: 322

2018-04-09 19:27  
Так, справді чудовий фільм з прекрасними акторами.
padalkaandrey 
Поважний учасник


З нами з: 04.09.09
Востаннє: 16.12.18
Повідомлень: 190

2018-06-21 13:40  
Планується оновлення звуку?
Anonymous 







2018-06-25 18:17  
Реліз оновлено - замінено відеоряд та звук на якісніші
Oleghk1102 
Новенький


З нами з: 21.04.16
Востаннє: 30.11.18
Повідомлень: 2

2018-06-25 21:27  
Гарне кіно!!!
fitba 
Новенький


З нами з: 01.06.18
Востаннє: 18.11.18
Повідомлень: 1

2018-06-30 19:20  
Дуже цікава історія про легендарну Моллі Блум, яка ніколи не здається. Фільм 10/10.
walv 
Новенький


З нами з: 20.12.14
Востаннє: 23.11.18
Повідомлень: 8

2018-07-03 01:34  
без зайвих вагань, 10/10
vash1 
Поважний учасник


З нами з: 16.03.16
Востаннє: 15.12.18
Повідомлень: 155

2018-07-11 09:48  
Той випадок, коли hevc на 30% меншим бітрейтом (1269 Kbps) стискає розширення 1920х1080 краще, ніж 720х304 при бітрейті 1757 Kbps :]


andriy_nv 
VIP


З нами з: 27.06.08
Востаннє: 15.12.18
Повідомлень: 714

2018-08-30 17:29  
хороше кіно

ну і Jessica Chastain свої форми показала Wink (2)

Ваш часовий пояс: GMT + 2 Години

Нова тема   Відповісти